128 ударів серця на хвилину / We Are Your Friends (2015) AVC 3xUkr/Eng| Sub Eng

Нові коментарі

Нова тема   Відповісти
Автор Повідомлення
staf777 
Відео Гуртом - підтримка та поширення
Відео Гуртом - підтримка та поширення


З нами з: 16.11.16
Востаннє: 20.04.19
Повідомлень: 2267

2018-06-01 18:35  
128 ударів серця на хвилину / We Are Your Friends (2015) AVC 3xUkr/Eng| Sub Eng

128 ударів серця на хвилину / We Are Your Friends (2015) AVC 3xUkr/Eng| Sub Eng


Жанр: драма, музичний, романтичний
Країна: Великобританія, Франція, США



Кінокомпанія: Polygram Filmed Entertainment, StudioCanal, Working Title Films
Режисер: Макс Джозеф
Актори: Зак Ефрон, Вес Бентлі, Емілі Ратаковскі, Джонні Вестон, Шило Фернандес, Алекс Шеффер, Джон Бернтал, Алісія Коппола, Вайлі М. Пікетт

Сюжет:
Дія фільму розгортається в Голівуді. Двадцятитрирічний діджей на ім'я Коул проводить дні і ночі свого життя в постійній роботі над одним треком, який повинен підірвати весь світ. Все це змінюється, коли він знайомиться з більш досвідченим, хоча і не зовсім здоровим діджеєм Джеймсом, який бере хлопця під своє крило. Незабаром Коул закохується у Софі, дівчину Джеймса, і йому доводиться вибирати між любов'ю, дружбою і своїм майбутнім...


Тривалість: 01:36:03
Якість: AVC
Відео:
кодек:
розмір кадру: 1024x552
бітрейт: 2355 кб/с

Аудіо # 1:
мова: українська
переклад: багатоголосий закадровий
кодек: 2.0
бітрейт: 192 кб/с

Аудіо # 2:
мова: українська
переклад: багатоголосий закадровий
кодек: 2.0
бітрейт: 192 кб/с

Аудіо # 3:
мова: українська
переклад: професійний дубльований
кодек: 2.0
бітрейт: 192 кб/с

Аудіо # 4:
мова: англійська
переклад: оригінал
кодек: 5.1
бітрейт: 640 кб/с

Субтитри:
мова: англійська
тип: програмні (м'які)
формат: *.srt
Info
General
Unique ID : 251467963168713809200898853532275553485 (0xBD2EF7D0F31EE4138FE42B182F23B4CD)
Complete name : H:\Майбутні релізи\We Are Your Friends (2015) AVC [3xUkr][Eng][Sub Eng][Hurtom].
Format :
Format version : Version 4 / Version 2
File size : 2.40 GiB
Duration : 1 h 36 min
Overall bit rate : 3 572 kb/s
Movie name : We Are Your Friends (2015) AVC [3xUkr][Eng][Sub Eng][Hurtom]
Encoded date : UTC 2018-06-01 15:48:53
Writing application : v9.8.0 ('Kuglblids') 64bit
Writing library : libebml v1.3.4 + v1.4.5
Cover : Yes
Attachments : cover.jpg

Video
ID : 1
Format : AVC
Format/Info : Advanced Video Codec
Format profile : [email protected]
Format settings : CABAC / 12 Ref Frames
Format settings, CABAC : Yes
Format settings, ReFrames : 12 frames
Codec ID : V_MPEG4/ISO/AVC
Duration : 1 h 36 min
Bit rate : 2 355 kb/s
Width : 1 024 pixels
Height : 552 pixels
Display aspect ratio : 1.85:1
Frame rate mode : Constant
Frame rate : 24.000 FPS
Color space : YUV
Chroma subsampling : 4:2:0
Bit depth : 8 bits
Scan type : Progressive
Bits/(Pixel*Frame) : 0.174
Stream size : 1.58 GiB (66%)
Title : potroks
Writing library : core 152 r2851M ba24899
Encoding settings : cabac=1 / ref=12 / deblock=1:-2:-2 / analyse=0x3:0x132 / me=umh / subme=11 / psy=1 / psy_rd=0.96:0.00 / mixed_ref=1 / me_range=48 / chroma_me=1 / trellis=2 / 8x8dct=1 / cqm=0 / deadzone=21,11 / fast_pskip=0 / chroma_qp_offset=-2 / threads=9 / lookahead_threads=2 / sliced_threads=0 / nr=0 / decimate=0 / interlaced=0 / bluray_compat=0 / constrained_intra=0 / bframes=13 / b_pyramid=2 / b_adapt=2 / b_bias=0 / direct=3 / weightb=1 / open_gop=0 / weightp=2 / keyint=240 / keyint_min=23 / scenecut=40 / intra_refresh=0 / rc_lookahead=0 / rc=2pass / mbtree=0 / bitrate=2355 / ratetol=1.0 / qcomp=0.70 / qpmin=0 / qpmax=69 / qpstep=4 / cplxblur=20.0 / qblur=0.5 / vbv_maxrate=62500 / vbv_bufsize=44642 / nal_hrd=none / filler=0 / ip_ratio=1.40 / pb_ratio=1.30 / aq=1:0.80
Language : English
Default : Yes
Forced : No

Audio #1
ID : 2
Format : AC-3
Format/Info : Audio Coding 3
Codec ID : A_AC3
Duration : 1 h 36 min
Bit rate mode : Constant
Bit rate : 192 kb/s
Channel(s) : 2 channels
Channel positions : Front: L R
Sampling rate : 48.0 kHz
Frame rate : 31.250 FPS (1536 SPF)
Bit depth : 16 bits
Compression mode : Lossy
Stream size : 132 MiB (5%)
Language : Ukrainian
Service kind : Complete Main
Default : Yes
Forced : Yes

Audio #2
ID : 3
Format : AC-3
Format/Info : Audio Coding 3
Codec ID : A_AC3
Duration : 1 h 35 min
Bit rate mode : Constant
Bit rate : 192 kb/s
Channel(s) : 2 channels
Channel positions : Front: L R
Sampling rate : 48.0 kHz
Frame rate : 31.250 FPS (1536 SPF)
Bit depth : 16 bits
Compression mode : Lossy
Stream size : 131 MiB (5%)
Language : Ukrainian
Service kind : Complete Main
Default : No
Forced : No

Audio #3
ID : 4
Format : AC-3
Format/Info : Audio Coding 3
Codec ID : A_AC3
Duration : 1 h 35 min
Bit rate mode : Constant
Bit rate : 192 kb/s
Channel(s) : 2 channels
Channel positions : Front: L R
Sampling rate : 48.0 kHz
Frame rate : 31.250 FPS (1536 SPF)
Bit depth : 16 bits
Compression mode : Lossy
Stream size : 132 MiB (5%)
Language : Ukrainian
Service kind : Complete Main
Default : No
Forced : No

Audio #4
ID : 5
Format : AC-3
Format/Info : Audio Coding 3
Codec ID : A_AC3
Duration : 1 h 36 min
Bit rate mode : Constant
Bit rate : 640 kb/s
Channel(s) : 6 channels
Channel positions : Front: L C R, Side: L R, LFE
Sampling rate : 48.0 kHz
Frame rate : 31.250 FPS (1536 SPF)
Bit depth : 16 bits
Compression mode : Lossy
Stream size : 440 MiB (18%)
Language : English
Service kind : Complete Main
Default : No
Forced : No

Text
ID : 6
Format : UTF-8
Codec ID : S_TEXT/UTF8
Codec ID/Info : UTF-8 Plain Text
Duration : 1 h 31 min
Bit rate : 63 b/s
Count of elements : 1393
Stream size : 42.3 KiB (0%)
Language : English
Default : No
Forced : No

Menu
00:00:00.000 : en:(01)00:00:00:000
00:10:29.250 : en:(02)00:10:29:250
00:20:29.375 : en:(03)00:20:29:375
00:32:28.750 : en:(04)00:32:28:750
00:42:20.500 : en:(05)00:42:20:500
00:53:42.666 : en:(06)00:53:42:666
01:04:27.250 : en:(07)01:04:27:250
01:14:39.707 : en:(08)01:14:39:707
01:29:55.750 : en:(09)01:29:55:750
Скріншоти





За доріжку від megogo дякую пану AngryBirdsUA
За запис з К1 дякую пану Bohdan237 та пану Arsenfpu за синхронізацію
За запис з ТЕТ дякую пану Neytreenor та пану Arsenfpu за синхронізацію
Джерело: &
Особиста оцінка: 8 - мені сподобалося


 Трекер:    Зареєстрований   

Завантажити / скачати фільм українською



відео для новачків



 Зареєстрований:   2018-06-02 17:06
 Розмір:   2.4 GB 
 Оцінка фільму:   9/10 (Голосів: 10)
   
bot 
робот


З нами з: 30.09.07
Востаннє: 26.05.05
Повідомлень: 21217

2018-06-02 17:05  
Тему перенесено з Анонси релізів до форуму Фільми


staf777

11FrYkT 
Модератор відео


З нами з: 20.02.11
Востаннє: 20.04.19
Повідомлень: 5794

2018-06-02 18:56  
staf777 написано:

мова: англійська
переклад: оригінал
кодек: 5.1
бітрейт: 640 кб/с

те саме щей оригінал для чого?

staf777 
Відео Гуртом - підтримка та поширення
Відео Гуртом - підтримка та поширення


З нами з: 16.11.16
Востаннє: 20.04.19
Повідомлень: 2267

2018-06-02 19:01  
11FrYkT написано:
те саме щей оригінал для чого?

Там один оригінал при оформленні помилився

11FrYkT 
Модератор відео


З нами з: 20.02.11
Востаннє: 20.04.19
Повідомлень: 5794

2018-06-02 19:27  
staf777 написано:
Там один оригінал при оформленні помилився

а сумарно 3 фільми з 640, нічого так помилка

Ваш часовий пояс: GMT + 2 Години

Нова тема   Відповісти