Цінний вантаж / Precious Cargo (2016) AVC Ukr/Eng | Sub Eng

Нові коментарі

Нова тема   Відповісти
Автор Повідомлення
staf777 
Відео Гуртом - підтримка та поширення
Відео Гуртом - підтримка та поширення


З нами з: 16.11.16
Востаннє: 22.11.19
Повідомлень: 3034

2018-05-31 21:34  
Цінний вантаж / Precious Cargo (2016) AVC Ukr/Eng | Sub Eng

Цінний вантаж / Precious Cargo (2016) AVC Ukr/Eng | Sub Eng


Жанр: екшн, комедія, кримінальний
Країна: Канада



Кінокомпанія: Emmett/Furla/Oasis Films (EFO Films), Herrick Entertainment, Highland Film Group (HFG)
Режисер: Макс Адамс
Актори: Брюс Вілліс, Марк-Пол Госселаар, Клер Форлані, Джон Бразертон, Дженна Б. Келлі, Ніколас М. Лоб, Лідія Галл, Деніел Бернгард, Ешлі Кірк, Тайлер Джон Олсон

Сюжет:
Професійна злодійка Карен завжди відповідально підходить до кожної нової справи, але все на світі неможливо передбачити, і в цей раз її план не спрацював. А все тому, що вона вирішила кинути свого боса Едді. За непослух і обман, він вимагає всю частку, інакше вірна смерть. Тепер їй доведеться виконати завдання для Едді, щоб розплатиться за скоєне. Для цього вона звертається до свого бойфренда, який повинен допомогти здійснити пограбування вантажівки, яка перевозить коштовності. Це дуже небезпечна місія, в такій справі не повинно бути жодної осічки, але чи всю правду розповіла Карен своїй новій команді? Чи знають вони у яку гру їх втягують?


Тривалість: 01:29:56
Якість: AVC
Відео:
кодек:
розмір кадру: 1024x426
бітрейт: 2319 кб/с

Аудіо # 1:
мова: українська
переклад: багатоголосий закадровий
кодек: 2.0
бітрейт: 192 кб/с

Аудіо # 2:
мова: англійська
переклад: оригінал
кодек: 5.1
бітрейт: 384 кб/с

Субтитри:
мова: англійська
тип: програмні (м'які)
формат: *.srt
Info
General
Unique ID : 206665994015180475990613331207642006314 (0x9B7A6C31E01D566AB27DD46E8CC1C32A)
Complete name : H:\Майбутні релізи\Precious Cargo (2016) AVC [Ukr][Eng][Sub Eng][Hurtom].
Format :
Format version : Version 4 / Version 2
File size : 1.82 GiB
Duration : 1 h 29 min
Overall bit rate : 2 896 kb/s
Movie name : Precious Cargo (2016) AVC [Ukr][Eng][Sub Eng][Hurtom]
Encoded date : UTC 2018-06-01 12:24:59
Writing application : v9.8.0 ('Kuglblids') 64bit
Writing library : libebml v1.3.4 + v1.4.5
Cover : Yes
Attachments : cover.jpg

Video
ID : 1
Format : AVC
Format/Info : Advanced Video Codec
Format profile : [email protected]
Format settings : CABAC / 12 Ref Frames
Format settings, CABAC : Yes
Format settings, ReFrames : 12 frames
Codec ID : V_MPEG4/ISO/AVC
Duration : 1 h 29 min
Bit rate : 2 319 kb/s
Width : 1 024 pixels
Height : 426 pixels
Display aspect ratio : 2.40:1
Frame rate mode : Constant
Frame rate : 23.976 (24000/1001) FPS
Color space : YUV
Chroma subsampling : 4:2:0
Bit depth : 8 bits
Scan type : Progressive
Bits/(Pixel*Frame) : 0.222
Stream size : 1.46 GiB (80%)
Title : ExKinoRay
Writing library : core 152 r2851 ba24899
Encoding settings : cabac=1 / ref=12 / deblock=1:-2:-2 / analyse=0x3:0x133 / me=umh / subme=11 / psy=1 / psy_rd=1.00:0.00 / mixed_ref=1 / me_range=32 / chroma_me=1 / trellis=2 / 8x8dct=1 / cqm=0 / deadzone=21,11 / fast_pskip=0 / chroma_qp_offset=-3 / threads=6 / lookahead_threads=1 / sliced_threads=0 / nr=0 / decimate=0 / interlaced=0 / bluray_compat=0 / constrained_intra=0 / bframes=11 / b_pyramid=2 / b_adapt=2 / b_bias=0 / direct=3 / weightb=1 / open_gop=0 / weightp=2 / keyint=240 / keyint_min=23 / scenecut=40 / intra_refresh=0 / rc_lookahead=40 / rc=2pass / mbtree=0 / bitrate=2319 / ratetol=1.0 / qcomp=0.60 / qpmin=0 / qpmax=69 / qpstep=4 / cplxblur=20.0 / qblur=0.5 / vbv_maxrate=50000 / vbv_bufsize=62500 / nal_hrd=none / filler=0 / ip_ratio=1.40 / pb_ratio=1.30 / aq=2:1.00
Language : English
Default : Yes
Forced : No

Audio #1
ID : 2
Format : AC-3
Format/Info : Audio Coding 3
Codec ID : A_AC3
Duration : 1 h 29 min
Bit rate mode : Constant
Bit rate : 192 kb/s
Channel(s) : 2 channels
Channel positions : Front: L R
Sampling rate : 48.0 kHz
Frame rate : 31.250 FPS (1536 SPF)
Bit depth : 16 bits
Compression mode : Lossy
Stream size : 124 MiB (7%)
Title : [UA-DUB]
Language : Ukrainian
Service kind : Complete Main
Default : Yes
Forced : Yes

Audio #2
ID : 3
Format : AC-3
Format/Info : Audio Coding 3
Codec ID : A_AC3
Duration : 1 h 29 min
Bit rate mode : Constant
Bit rate : 384 kb/s
Channel(s) : 6 channels
Channel positions : Front: L C R, Side: L R, LFE
Sampling rate : 48.0 kHz
Frame rate : 31.250 FPS (1536 SPF)
Bit depth : 16 bits
Compression mode : Lossy
Stream size : 247 MiB (13%)
Language : English
Service kind : Complete Main
Default : No
Forced : No

Text
ID : 4
Format : UTF-8
Codec ID : S_TEXT/UTF8
Codec ID/Info : UTF-8 Plain Text
Duration : 1 h 28 min
Bit rate : 60 b/s
Count of elements : 1034
Stream size : 39.3 KiB (0%)
Language : English
Default : No
Forced : No

Menu
00:00:00.000 : en:00:00:00.000
00:08:58.621 : en:00:08:58.621
00:12:51.938 : en:00:12:51.938
00:16:55.848 : en:00:16:55.848
00:25:43.208 : en:00:25:43.208
00:32:43.128 : en:00:32:43.128
00:36:33.900 : en:00:36:33.900
00:42:13.197 : en:00:42:13.197
00:46:02.551 : en:00:46:02.551
00:52:34.360 : en:00:52:34.360
00:58:47.107 : en:00:58:47.107
01:02:41.466 : en:01:02:41.466
01:06:36.576 : en:01:06:36.576
01:08:36.696 : en:01:08:36.696
01:12:46.904 : en:01:12:46.904
01:21:35.057 : en:01:21:35.057
Скріншоти






Подяка пану Bohdan237 за запис звуку з ТБ та пану Gelios за синхронізацію.

Джерело: &


 Трекер:    Зареєстрований   

Завантажити / скачати фільм українською



відео для новачків



 Зареєстрований:   2018-06-02 15:42
 Розмір:   1.82 GB 
 Оцінка фільму:   9.1/10 (Голосів: 11)
   
Інші релізи
   Цінний вантаж / Precious Cargo (2016) Remux 1080p Ukr/Eng | Sub Eng staf777  0 / 0   24.39 GB   2018-07-27 21:00 
   Цінний вантаж / Precious Cargo (2016) 1080p Ukr/Eng | Sub Eng staf777  2 / 0   7.98 GB   2018-02-07 13:49 
   Цінний вантаж / Precious Cargo (2016) 720p Ukr/Eng | Sub Eng 11FrYkT  3 / 0   3.42 GB   2017-05-30 06:07 
   Цінний вантаж / Precious Cargo (2016) Ukr/Eng Gelios  6 / 0   1.45 GB   2017-05-29 21:07 
bot 
робот


З нами з: 30.09.07
Востаннє: 26.05.05
Повідомлень: 22498

2018-06-02 15:41  
Тему перенесено з Анонси релізів до форуму Фільми


staf777

Ваш часовий пояс: GMT + 2 Години

Нова тема   Відповісти