Обряд / The Rite (2011) mini 720p Ukr/Eng | Sub Eng

Нові коментарі

Нова тема   Відповісти
Автор Повідомлення
staf777 
Відео Гуртом - підтримка та поширення
Відео Гуртом - підтримка та поширення


З нами з: 16.11.16
Востаннє: 30.09.20
Повідомлень: 4077

2018-05-31 21:55  
Обряд / The Rite (2011) mini 720p Ukr/Eng | Sub Eng

Обряд / The Rite (2011) mini 720p Ukr/Eng | Sub Eng

Альтернативний постер

Жанр: драма, жахи, трилер
Країна: США



Кінокомпанія: New Line Cinema, Contrafilm, Fletcher & Company
Режисер: Мікаель Хафстрем (Mikael Hаfstrоm)
Актори: Ентоні Хопкінс (Anthony Hopkins), Колiн О’Донохью (Colin O'Donoghue), Алісі Брага (Alice Braga), Кіаран Хіндс (Ciarán Hinds), Тобі Джонс (Toby Jones), Рутґер Гауер (Rutger Hauer), Марія Грація Кучінотта (Maria Grazia Cucinotta) та інші.

Сюжет:
Студент духовної семінарії відправляється до Ватикану вчитися екзорцизму. При цьому він сумнівається як в цій суперечливій практиці, так і у вірі в Бога взагалі. Лише коли він стає учнем легендарного отця Лукаса, який проводив обряд вигнання диявола тисячі разів, його скептицизм починає танути. І ось, коли чергова справа про одержимість дияволом виявляється не під силу самому отцю Лукасу, молодий семінарист стикається віч-на-віч з феноменом, який наука нездатна ні пояснити, ні контролювати. Щоб вижити в протистоянні з жахливим злом, йому належить зрозуміти: у що він дійсно вірить?


Тривалість: 01:53:42
Якість: mini 720p
Відео:
кодек:
розмір кадру: 1268 x 528
бітрейт: 2107 кб/с

Аудіо # 1:
мова: українська
переклад: багатоголосий закадровий
кодек: 2.0
бітрейт: 192 кб/с

Аудіо # 2:
мова: англійська
переклад: оригінал
кодек: 5.1
бітрейт: 384 кб/с

Джерело озвучення:


Субтитри #1-2:
мова: англійська
тип: програмні (м'які)
формат: *.srt
Info
General
Unique ID : 223794171339939440078144520404411097159 (0xA85D308961F05618966E1B0FEE302047)
Complete name : H:\Майбутні релізи\The Rite (2011) AVC [Ukr,Eng sub.Eng] [Hurtom].
Format :
Format version : Version 4 / Version 2
File size : 2.13 GiB
Duration : 1 h 53 min
Overall bit rate : 2 680 kb/s
Movie name : The Rite (2011) AVC [Ukr,Eng sub.Eng] [Hurtom]
Encoded date : UTC 2018-06-02 18:57:44
Writing application : v9.8.0 ('Kuglblids') 64bit
Writing library : libebml v1.3.4 + v1.4.5
Cover : Yes
Attachments : cover.jpg

Video
ID : 1
Format : AVC
Format/Info : Advanced Video Codec
Format profile : [email protected]
Format settings : CABAC / 6 Ref Frames
Format settings, CABAC : Yes
Format settings, ReFrames : 6 frames
Codec ID : V_MPEG4/ISO/AVC
Duration : 1 h 53 min
Bit rate : 2 107 kb/s
Width : 1 268 pixels
Height : 528 pixels
Display aspect ratio : 2.40:1
Frame rate mode : Constant
Frame rate : 23.976 (24000/1001) FPS
Color space : YUV
Chroma subsampling : 4:2:0
Bit depth : 8 bits
Scan type : Progressive
Bits/(Pixel*Frame) : 0.131
Stream size : 1.67 GiB (79%)
Title : 30/07/2011
Writing library : core 116 r2037 f8ebd4a
Encoding settings : cabac=1 / ref=6 / deblock=1:-3:-2 / analyse=0x3:0x113 / me=umh / subme=10 / psy=1 / psy_rd=1.00:0.15 / mixed_ref=1 / me_range=32 / chroma_me=1 / trellis=2 / 8x8dct=1 / cqm=0 / deadzone=21,11 / fast_pskip=0 / chroma_qp_offset=-3 / threads=12 / sliced_threads=0 / nr=0 / decimate=1 / interlaced=0 / bluray_compat=0 / constrained_intra=0 / bframes=8 / b_pyramid=2 / b_adapt=2 / b_bias=0 / direct=3 / weightb=1 / open_gop=0 / weightp=2 / keyint=250 / keyint_min=23 / scenecut=40 / intra_refresh=0 / rc_lookahead=60 / rc=2pass / mbtree=1 / bitrate=2107 / ratetol=1.0 / qcomp=0.65 / qpmin=1 / qpmax=63 / qpstep=4 / cplxblur=20.0 / qblur=0.5 / vbv_maxrate=50000 / vbv_bufsize=62500 / nal_hrd=none / ip_ratio=1.40 / aq=2:0.85 / zones=157448,163570,q=35
Language : English
Default : No
Forced : No

Audio #1
ID : 2
Format : AC-3
Format/Info : Audio Coding 3
Codec ID : A_AC3
Duration : 1 h 53 min
Bit rate mode : Constant
Bit rate : 192 kb/s
Channel(s) : 2 channels
Channel positions : Front: L R
Sampling rate : 48.0 kHz
Frame rate : 31.250 FPS (1536 SPF)
Bit depth : 16 bits
Compression mode : Lossy
Stream size : 156 MiB (7%)
Title : [UA-MVO-ICTV]
Language : Ukrainian
Service kind : Complete Main
Default : Yes
Forced : Yes

Audio #2
ID : 3
Format : AC-3
Format/Info : Audio Coding 3
Codec ID : A_AC3
Duration : 1 h 52 min
Bit rate mode : Constant
Bit rate : 384 kb/s
Channel(s) : 6 channels
Channel positions : Front: L C R, Side: L R, LFE
Sampling rate : 48.0 kHz
Frame rate : 31.250 FPS (1536 SPF)
Bit depth : 16 bits
Compression mode : Lossy
Stream size : 309 MiB (14%)
Title : Original
Language : English
Service kind : Complete Main
Default : No
Forced : No

Text #1
ID : 4
Format : UTF-8
Codec ID : S_TEXT/UTF8
Codec ID/Info : UTF-8 Plain Text
Duration : 1 h 8 min
Bit rate : 6 b/s
Count of elements : 139
Stream size : 3.26 KiB (0%)
Title : Forced
Language : English
Default : No
Forced : No

Text #2
ID : 5
Format : UTF-8
Codec ID : S_TEXT/UTF8
Codec ID/Info : UTF-8 Plain Text
Duration : 1 h 49 min
Bit rate : 48 b/s
Count of elements : 1168
Stream size : 38.9 KiB (0%)
Title : Full
Language : English
Default : No
Forced : No

Menu
00:00:00.000 : en:00:00:00.000
00:10:14.197 : en:00:10:14.197
00:18:23.686 : en:00:18:23.686
00:29:16.546 : en:00:29:16.546
00:40:35.433 : en:00:40:35.433
00:50:16.013 : en:00:50:16.013
01:01:11.376 : en:01:01:11.376
01:11:14.270 : en:01:11:14.270
01:20:51.555 : en:01:20:51.555
01:27:14.896 : en:01:27:14.896
01:37:09.741 : en:01:37:09.741
01:49:43.202 : en:01:49:43.202
Скріншоти






Подяки:
- за запис з ТБ п. Sando7. п. ratbol, та п. POMEO;
- за постери п. bilenkuyboy

Джерело: &
Особиста оцінка: 8 - мені сподобалося
Обряд / The Rite (2011) mini 720p Ukr/Eng | Sub Eng


Обряд / The Rite (2011) mini 720p Ukr/Eng | Sub Eng


 Трекер:    Зареєстрований   

Завантажити / скачати фільм українською



відео для новачків



 Зареєстрований:   2018-06-02 22:06
 Розмір:   2.13 GB 
 Оцінка фільму:   6.9/10 (Голосів: 8)
   
Інші релізи
   Обряд / The Rite (2011) 1080p H.265 Ukr/Eng | Sub Eng -Star-Lord-  0 / 1   7.9 GB   2019-11-01 00:35 
   Обряд / The Rite (2011) AVC Ukr/Eng | Sub Ukr/Eng Jatx_11  3 / 0   2.18 GB   2019-01-01 16:58 
   Обряд / The Rite (2011) 1080p Ukr/Eng | Sub Eng staf777  4 / 0   8.87 GB   2018-03-18 17:43 
   Обряд / The Rite (2011) patriot2305  6 / 0   1.46 GB   2014-01-17 15:26 
bot 
робот


З нами з: 30.09.07
Востаннє: 26.05.05
Повідомлень: 25672

2018-06-02 22:05  
Тему перенесено з Анонси релізів до форуму Фільми


staf777

bot 
робот


З нами з: 30.09.07
Востаннє: 26.05.05
Повідомлень: 25672

2018-06-02 23:01  
Тему перенесено з Фільми до форуму Фільми в HD


11FrYkT

Ваш часовий пояс: GMT + 2 Години

Нова тема   Відповісти