30 днів ночі / 30 Days of Night (2007) AVC Ukr/Eng | Sub Eng

Нові коментарі

Нова тема   Відповісти
Автор Повідомлення
staf777 
Відео Гуртом - підтримка та поширення
Відео Гуртом - підтримка та поширення


З нами з: 16.11.16
Востаннє: 18.10.19
Повідомлень: 2986

2018-05-31 21:42  
30 днів ночі / 30 Days of Night (2007) AVC Ukr/Eng | Sub Eng

30 днів ночі / 30 Days of Night (2007) AVC Ukr/Eng | Sub Eng


Жанр: трилер, жахи
Країна: США



Кінокомпанія: Columbia Pictures, 30 Days of Night, Dark Horse Entertainment & Ghost House Pictures
Режисер: Дейвід Слейд / David Slade
Актори: Джош Гартнет, Меліса Джордж, Денні Г'юстон, Бен Фостер, Марк Бун-мол., Марк Рендалл, Ембер Сейнсбурі, Ману Беннетт, Меган Френіч, Джоел Тобек

Сюжет:
Як вижити на Алясці, де ніч триває 30 днів, коли навколо самі вампіри, а усі зв'язки з цивілізацією втрачено? Це питання постає перед жителями маленького містечка, які на чолі з місцевим шерифом (Гартнет) намагаються дочекатися сходу сонця...

Картина є екранізацією графічного роману, написаного Стівом Найлсом та ілюстрованого Беном Темплсмітом. Ідея виникла у Найлса під час його перебування на Алясці. Поєднавши стародавні легенди про вампірів та сучасні умови життя у відрізаному від світу містечку, автор написав моторошний і водночас реалістичний роман. Центральна сюжетна лінія першоджерела дещо відрізняється від фільму: у стрічці образи антагоністів спрощені до уявлень про вампірів як “носферату” зі старих чорно-білих картин. Мови, якою у “30 днях” розмовляють упирі, насправді не існує: її спеціально вигадали Найлс, продюсер Сем Реймі та виконавець ролі головного лиходія Г'юстон. У 2010 вийшов сіквел: "30 Days of Night: Dark Days"


Тривалість: 01:52:49
Якість: AVC
Відео:
кодек:
розмір кадру: 1024x424
бітрейт: 2777 кб/с

Аудіо # 1:
мова: українська
переклад: двоголосий закадровий
кодек: 5.1
бітрейт: 384 кб/с

Аудіо # 2:
мова: англійська
переклад: оригінал
кодек: 5.1
бітрейт: 384 кб/с

Джерело озвучення:


Субтитри :
мова: англійська
тип: програмні (м'які)
формат: *.srt
Info
General
Unique ID : 225696237697678723458453434258966699558 (0xA9CB83A600AF9F7DA4AE0494E37BDE26)
Complete name : H:\Майбутні релізи\30 Days of Night (2007) AVC [Ukr][Eng][Sub Eng][Hurtom].
Format :
Format version : Version 4 / Version 2
File size : 2.80 GiB
Duration : 1 h 53 min
Overall bit rate : 3 543 kb/s
Movie name : 30 Days of Night (2007) AVC [Ukr][Eng][Sub Eng][Hurtom]
Encoded date : UTC 2018-05-31 19:20:30
Writing application : v9.8.0 ('Kuglblids') 64bit
Writing library : libebml v1.3.4 + v1.4.5
Cover : Yes
Attachments : cover.jpg

Video
ID : 1
Format : AVC
Format/Info : Advanced Video Codec
Format profile : [email protected]
Format settings : CABAC / 9 Ref Frames
Format settings, CABAC : Yes
Format settings, ReFrames : 9 frames
Codec ID : V_MPEG4/ISO/AVC
Duration : 1 h 53 min
Bit rate : 2 777 kb/s
Width : 1 024 pixels
Height : 424 pixels
Display aspect ratio : 2.40:1
Frame rate mode : Constant
Frame rate : 23.976 (24000/1001) FPS
Color space : YUV
Chroma subsampling : 4:2:0
Bit depth : 8 bits
Scan type : Progressive
Bits/(Pixel*Frame) : 0.267
Stream size : 2.19 GiB (78%)
Title : Rip by 0ptimus
Writing library : core 129 r2230 1cffe9f
Encoding settings : cabac=1 / ref=9 / deblock=1:-2:-1 / analyse=0x3:0x113 / me=umh / subme=11 / psy=1 / psy_rd=1.00:0.20 / mixed_ref=1 / me_range=32 / chroma_me=1 / trellis=2 / 8x8dct=1 / cqm=0 / deadzone=21,11 / fast_pskip=0 / chroma_qp_offset=-3 / threads=4 / lookahead_threads=1 / sliced_threads=0 / nr=0 / decimate=0 / interlaced=0 / bluray_compat=0 / constrained_intra=0 / bframes=11 / b_pyramid=2 / b_adapt=2 / b_bias=0 / direct=3 / weightb=1 / open_gop=0 / weightp=2 / keyint=240 / keyint_min=23 / scenecut=40 / intra_refresh=0 / rc_lookahead=40 / rc=2pass / mbtree=0 / bitrate=2777 / ratetol=1.0 / qcomp=0.60 / qpmin=0 / qpmax=69 / qpstep=4 / cplxblur=20.0 / qblur=0.5 / vbv_maxrate=50000 / vbv_bufsize=50000 / nal_hrd=none / ip_ratio=1.40 / pb_ratio=1.30 / aq=1:1.00
Language : English
Default : Yes
Forced : Yes

Audio #1
ID : 2
Format : AC-3
Format/Info : Audio Coding 3
Codec ID : A_AC3
Duration : 1 h 53 min
Bit rate mode : Constant
Bit rate : 384 kb/s
Channel(s) : 6 channels
Channel positions : Front: L C R, Side: L R, LFE
Sampling rate : 48.0 kHz
Frame rate : 31.250 FPS (1536 SPF)
Bit depth : 16 bits
Compression mode : Lossy
Stream size : 311 MiB (11%)
Title : DVO 1+1
Language : Ukrainian
Service kind : Complete Main
Default : Yes
Forced : Yes

Audio #2
ID : 3
Format : AC-3
Format/Info : Audio Coding 3
Codec ID : A_AC3
Duration : 1 h 53 min
Bit rate mode : Constant
Bit rate : 384 kb/s
Channel(s) : 6 channels
Channel positions : Front: L C R, Side: L R, LFE
Sampling rate : 48.0 kHz
Frame rate : 31.250 FPS (1536 SPF)
Bit depth : 16 bits
Compression mode : Lossy
Stream size : 311 MiB (11%)
Language : English
Service kind : Complete Main
Default : No
Forced : No

Text
ID : 4
Format : UTF-8
Codec ID : S_TEXT/UTF8
Codec ID/Info : UTF-8 Plain Text
Duration : 1 h 41 min
Bit rate : 27 b/s
Count of elements : 740
Stream size : 20.4 KiB (0%)
Language : English
Default : No
Forced : No

Menu
00:00:00.000 : :Chapter 01
00:06:31.140 : :Chapter 02
00:14:51.432 : :Chapter 03
00:21:05.639 : :Chapter 04
00:28:12.899 : :Chapter 05
00:35:53.151 : :Chapter 06
00:41:37.995 : :Chapter 07
00:50:26.440 : :Chapter 08
00:54:39.901 : :Chapter 09
01:02:24.449 : :Chapter 10
01:09:03.264 : :Chapter 11
01:14:49.443 : :Chapter 12
01:23:20.578 : :Chapter 13
01:26:41.070 : :Chapter 14
01:33:37.111 : :Chapter 15
01:38:00.332 : :Chapter 16
Скріншоти





Подяка пану dvorsky за сиру доріжку та пану MAKAPOHHIK за зведення.
Джерело: &
Особиста оцінка: 0 - не дивився


 Трекер:    Зареєстрований   

Завантажити / скачати фільм українською



відео для новачків



 Зареєстрований:   2018-05-31 22:49
 Розмір:   2.8 GB 
 Оцінка фільму:   8.4/10 (Голосів: 13)
   
Інші релізи
   30 днів ночі / 30 Days of Night (2007) 720p Ukr/Eng | Sub Eng staf777  1 / 0   5.19 GB   2019-09-19 21:53 
   30 днів ночі / 30 Days of Night (2007) 1080p Ukr/Eng | Sub Eng staf777  2 / 0   8.04 GB   2018-03-07 13:57 
   30 днів ночі / 30 Days of Night (2007) Remux 1080p Ukr/Eng | Sub Eng kvvdvd  0 / 0   23.37 GB   2017-04-22 09:36 
   30 днів ночі / 30 Days of Night (2007) 720p-mini Ukr/Eng | Sub Eng ThEO  1 / 0   2.14 GB   2011-07-02 17:52 
   30 днів ночі / 30 Days of Night (2007) MAKAPOHHIK  2 / 0   1.46 GB   2009-09-01 10:06 
bot 
робот


З нами з: 30.09.07
Востаннє: 26.05.05
Повідомлень: 22309

2018-05-31 22:47  
Тему перенесено з Анонси релізів до форуму Фільми


staf777

vkrav4uk 
Частий відвідувач


З нами з: 04.03.12
Востаннє: 18.10.19
Повідомлень: 49

2018-06-01 01:03  
Обожнюю такі фільми...
murrrchik 
Свій


З нами з: 22.07.10
Востаннє: 18.10.19
Повідомлень: 56

2018-06-02 17:21  
Непоганий фільм, хоч і не без недоліків. Дивно, що я його раніше не подивився.
Ваш часовий пояс: GMT + 2 Години

Нова тема   Відповісти