Загублені у космосі / Lost in Space (1998) 720p 2xUkr/Eng | Sub Eng

Нові коментарі

Нова тема   Відповісти
Автор Повідомлення
Anonymous 







2018-05-31 19:07  
Загублені у космосі / Lost in Space (1998) 720p 2xUkr/Eng | Sub Eng

Загублені у космосі / Lost in Space (1998) 720p 2xUkr/Eng | Sub Eng


Жанр: екшн, пригодницький, фантастика
Країна: США



Кінокомпанія: New Line Cinema, Saltire Entertainment, Irwin Allen Productions, Prelude Pictures
Режисер: Стівен Гопкінс / Stephen Hopkins
Актори: Ґарі Олдмен / Gary Oldman, Вільям Гарт / William Hurt, Метт ЛеБланк / Matt LeBlanc, Мімі Роджерс / Mimi Rogers, Гізер Ґрегем / Heather Graham, Ленні Джеймс / Lennie James та інші

Сюжет:
Події відбуваються у 2058 році, коли жити на Землі людству залишилося не більше двадцяти років – вичерпано все. Видатний учений Джон Робінсон і його сім'я вирушають найсучаснішим зорельотом на далеку планету Альфа Прим, придатну до життя, щоб збудувати там гіпербраму, через яку буде здійснено евакуацію людства. Екстремісти засилають на борт підступного лікаря Сміта, щоб той знищив сім'ю Робінсонів і сам корабель. Випадково залишившись на кораблі, Сміт, щоб не загинути, будить Робінсонів і капітана Веста, відважного бойового пілота. Щоб уникнути зіткнення з Сонцем, капітан вмикає гіпердвигун, і зореліт губиться у невідомій досі частині космосу.


Рейтинг MPAA: PG-13 - дітям до 13 років перегляд не бажаний
Вікова категорія: 12+

Тривалість: 02:10:13
Якість: 720p
Відео:
кодек:
розмір кадру: 1280 х 534
бітрейт: 4928 кб/с

Аудіо # 1:
мова: українська
переклад: двоголосий закадровий
кодек: 2.0
бітрейт: 224 кб/с
Інформація про озвучення
Переклад: Лідія Громовенко
Літературний редактор: Романна Мельниченко
Звукорежисер: Віктор Коляда
Режисер: Сергій Гаврилюк
Ролі озвучили: Ніна Касторф і Олесь Гімбаржевський
Аудіо # 2:
мова: українська
переклад: багатоголосий закадровий | ТакТребаПродакшн
кодек: 2.0
бітрейт: 224 кб/с
Інформація про озвучення
Ролі озвучили: Євген Пашин, ще один чоловічий і один жіночий голоси
Аудіо # 3:
мова: англійська
переклад: оригінал
кодек: 5.1
бітрейт: 640 кб/с

Субтитри # 1-2:
мова: англійська
тип: програмні (м'які)
формат: *.srt

Збережено оригінальні розділи, як на Blu-ray
Info та log
Код:
Complete name               : Lost in Space (1998) [2xUkr,Eng sub.Eng] 720p [Hurtom].
Format                      :
Format version              : Version 4 / Version 2
File size                   : 5.48 GiB
Duration                    : 2 h 10 min
Overall bit rate            : 6 018 kb/s
Movie name                  : Загублені у космосі / Lost in Space (1998) [2xUkr,Eng sub.Eng] 720p [Hurtom]
Released date               : 1998
Encoded date                : UTC 2018-05-31 17:37:28
Writing application         : v23.0.0 ('The Bride Said No') 64-bit
Writing library             : libebml v1.3.6 + v1.4.9
Cover                       : Yes
Comment                     : http://www.imdb.com/title/tt5232792/
Attachments                 : cover.jpg
ARTIST                      : Ґарі Олдмен / Gary Oldman, Вільям Гарт / William Hurt, Метт ЛеБланк / Matt LeBlanc, Мімі Роджерс / Mimi Rogers, Гізер Ґрегем / Heather Graham та інші
DIRECTOR                    : Стівен Гопкінс / Stephen Hopkins
GENRE                       : екшн, пригодницький, фантастика
SYNOPSIS                    : Події відбуваються у 2058 році, коли жити на Землі людству залишилося не більше двадцяти років – вичерпано все. Видатний учений Джон Робінсон і його сім'я вирушають найсучаснішим зорельотом на далеку планету Альфа Прим, придатну до життя, щоб збудувати там гіпербраму, через яку буде здійснено евакуацію людства. Екстремісти засилають на борт підступного лікаря Сміта, щоб той знищив сім'ю Робінсонів і сам корабель. Випадково залишившись на кораблі, Сміт, щоб не загинути, будить Робінсонів і капітана Веста, відважного бойового пілота. Щоб уникнути зіткнення з Сонцем, капітан вмикає гіпердвигун, і зореліт губиться у невідомій досі частині космосу...
Url                         : https://toloka.to/t90315

Video
ID                          : 1
Format                      : AVC
Format/Info                 : Advanced Video Codec
Format profile              : [email protected]
Format settings             : CABAC / 11 Ref Frames
Format settings, CABAC      : Yes
Format settings, ReFrames   : 11 frames
Codec ID                    : V_MPEG4/ISO/AVC
Duration                    : 2 h 10 min
Bit rate                    : 4 928 kb/s
Width                       : 1 280 pixels
Height                      : 534 pixels
Display aspect ratio        : 2.40:1
Frame rate mode             : Constant
Frame rate                  : 23.976 (24000/1001) FPS
Color space                 : YUV
Chroma subsampling          : 4:2:0
Bit depth                   : 8 bits
Scan type                   : Progressive
Bits/(Pixel*Frame)          : 0.301
Stream size                 : 4.48 GiB (82%)
Title                       : Загублені у космосі / Lost in Space (1998) 720p [rutracker-Ang+]
Writing library             : core 107 r1766 f9f0035
Encoding settings           : cabac=1 / ref=11 / deblock=1:-3:-2 / analyse=0x3:0x113 / me=umh / subme=9 / psy=1 / psy_rd=1.20:0.25 / mixed_ref=1 / me_range=32 / chroma_me=1 / trellis=2 / 8x8dct=1 / cqm=0 / deadzone=21,11 / fast_pskip=0 / chroma_qp_offset=-4 / threads=8 / sliced_threads=0 / nr=0 / decimate=1 / interlaced=0 / constrained_intra=0 / bframes=9 / b_pyramid=2 / b_adapt=2 / b_bias=0 / direct=1 / weightb=1 / open_gop=0 / weightp=2 / keyint=250 / keyint_min=23 / scenecut=40 / intra_refresh=0 / rc_lookahead=60 / rc=2pass / mbtree=1 / bitrate=4928 / ratetol=1.0 / qcomp=0.60 / qpmin=10 / qpmax=51 / qpstep=4 / cplxblur=20.0 / qblur=0.5 / vbv_maxrate=50000 / vbv_bufsize=62500 / ip_ratio=1.40 / aq=1:0.75 / nal_hrd=none
Language                    : English
Default                     : Yes
Forced                      : No
Color range                 : Limited
Matrix coefficients         : BT.709

Audio #1
ID                          : 2
Format                      : AC-3
Format/Info                 : Audio Coding 3
Codec ID                    : A_AC3
Duration                    : 2 h 10 min
Bit rate mode               : Constant
Bit rate                    : 224 kb/s
Channel(s)                  : 2 channels
Channel positions           : Front: L R
Sampling rate               : 48.0 kHz
Frame rate                  : 31.250 FPS (1536 SPF)
Bit depth                   : 16 bits
Compression mode            : Lossy
Stream size                 : 209 MiB (4%)
Title                       : DVO [1+1] 2.0 224 Kbps [Hurtom-robotron005,drakon87]
Language                    : Ukrainian
Service kind                : Complete Main
Default                     : Yes
Forced                      : No

Audio #2
ID                          : 3
Format                      : AC-3
Format/Info                 : Audio Coding 3
Codec ID                    : A_AC3
Duration                    : 2 h 10 min
Bit rate mode               : Constant
Bit rate                    : 224 kb/s
Channel(s)                  : 2 channels
Channel positions           : Front: L R
Sampling rate               : 48.0 kHz
Frame rate                  : 31.250 FPS (1536 SPF)
Bit depth                   : 16 bits
Compression mode            : Lossy
Stream size                 : 209 MiB (4%)
Title                       : MVO [TTP, ICTV] 2.0 224 Kbps [Hurtom-robotron005,karvai0]
Language                    : Ukrainian
Service kind                : Complete Main
Default                     : No
Forced                      : No

Audio #3
ID                          : 4
Format                      : AC-3
Format/Info                 : Audio Coding 3
Codec ID                    : A_AC3
Duration                    : 2 h 10 min
Bit rate mode               : Constant
Bit rate                    : 640 kb/s
Channel(s)                  : 6 channels
Channel positions           : Front: L C R, Side: L R, LFE
Sampling rate               : 48.0 kHz
Frame rate                  : 31.250 FPS (1536 SPF)
Bit depth                   : 16 bits
Compression mode            : Lossy
Stream size                 : 596 MiB (11%)
Title                       : Original, 5.1 640 Kbps
Language                    : English
Service kind                : Complete Main
Default                     : No
Forced                      : No

Text #1
ID                          : 5
Format                      : UTF-8
Codec ID                    : S_TEXT/UTF8
Codec ID/Info               : UTF-8 Plain Text
Duration                    : 2 h 1 min
Bit rate                    : 50 b/s
Count of elements           : 1556
Stream size                 : 45.2 KiB (0%)
Title                       : Eng full
Language                    : English
Default                     : No
Forced                      : No

Text #2
ID                          : 6
Format                      : UTF-8
Codec ID                    : S_TEXT/UTF8
Codec ID/Info               : UTF-8 Plain Text
Duration                    : 2 h 1 min
Bit rate                    : 59 b/s
Count of elements           : 1642
Stream size                 : 52.8 KiB (0%)
Title                       : Eng SDH
Language                    : English
Default                     : No
Forced                      : No

Menu
00:00:00.000                : en:Chapter 1
00:04:22.137                : en:Chapter 2
00:07:19.564                : en:Chapter 3
00:09:22.854                : en:Chapter 4
00:12:01.804                : en:Chapter 5
00:13:24.262                : en:Chapter 6
00:17:58.995                : en:Chapter 7
00:20:30.396                : en:Chapter 8
00:25:34.283                : en:Chapter 9
00:34:02.332                : en:Chapter 10
00:36:20.178                : en:Chapter 11
00:42:01.728                : en:Chapter 12
00:47:20.671                : en:Chapter 13
00:54:52.206                : en:Chapter 14
01:07:23.873                : en:Chapter 15
01:12:06.781                : en:Chapter 16
01:19:19.546                : en:Chapter 17
01:25:33.295                : en:Chapter 18
01:31:20.058                : en:Chapter 19
01:38:26.150                : en:Chapter 20
01:44:45.237                : en:Chapter 21
01:51:49.912                : en:Chapter 22
01:57:08.480                : en:Chapter 23
02:00:04.197                : en:Chapter 24

Код:
y4m [info]: 1280x534p 1:1 @ 24000/1001 fps (cfr)
[info]: using SAR=1/1
[info]: using cpu capabilities: MMX2 SSE2Fast SSSE3 FastShuffle SSE4.2
[info]: profile High, level 4.1
[info]: frame I:1570 Avg QP:15.93 size:103924
[info]: frame P:40807 Avg QP:17.54 size: 47505
[info]: frame B:144967 Avg QP:19.82 size: 18705
[info]: consecutive B-frames: 1.8% 2.6% 6.2% 22.0% 14.2% 42.2% 4.4% 3.7% 1.1% 1.8%
[info]: mb I I16..4: 8.4% 74.9% 16.7%
[info]: mb P I16..4: 1.8% 19.9% 2.7% P16..4: 33.4% 21.8% 15.6% 0.0% 0.0% skip: 4.9%
[info]: mb B I16..4: 0.1% 2.5% 0.4% B16..8: 42.2% 14.0% 3.7% direct:10.7% skip:26.4% L0:44.2% L1:38.9% BI:16.9%
[info]: 8x8 transform intra:81.6% inter:54.1%
[info]: coded y,uvDC,uvAC intra: 91.4% 92.3% 81.2% inter: 36.9% 42.1% 17.4%
[info]: i16 v,h,dc,p: 38% 14% 11% 37%
[info]: i8 v,h,dc,ddl,ddr,vr,hd,vl,hu: 13% 10% 7% 9% 12% 11% 13% 11% 14%
[info]: i4 v,h,dc,ddl,ddr,vr,hd,vl,hu: 12% 11% 4% 9% 14% 12% 14% 11% 14%
[info]: i8c dc,h,v,p: 46% 21% 15% 18%
[info]: Weighted P-Frames: Y:5.5%
[info]: ref P L0: 44.9% 6.6% 17.9% 9.0% 6.3% 4.8% 3.7% 2.3% 1.8% 1.5% 1.1% 0.1% 0.0%
[info]: ref B L0: 68.1% 14.7% 6.6% 3.4% 2.4% 1.8% 1.4% 0.8% 0.5% 0.2%
[info]: ref B L1: 92.1% 7.9%
[info]: kb/s:4927.99
encoded 187344 frames, 7.20 fps, 4927.99 kb/s




Джерело: &
Подяка п.drakon87 за запис з 1+1, п.karvai0 за запис з ICTV", п.robotron005 за синхронізацію та опис.

Свіжий рімейк цього фільму від Netflix у вигляді однойменного серіалу: Загублені у космосі / Lost in Space (2018)
Український трейлер нового серіалу від DZUSKI.COM:



Срібний реліз (на рейтинг впливає 50% завантаженого)
 Трекер:    Зареєстрований   

Завантажити / скачати фільм українською



відео для новачків



 Зареєстрований:   2018-05-31 19:56
 Розмір:   5.48 GB 
 Оцінка фільму:   10/10 (Голосів: 5)
   
Інші релізи
leon61 
Свій


З нами з: 09.09.08
Востаннє: 20.11.18
Повідомлень: 64

2018-06-01 22:58  
Джої на обкладинці? О, так. Метт ЛеБланк.
*здивований*

Lil`Antoni 
VIP


З нами з: 25.02.12
Востаннє: 09.12.18
Повідомлень: 642

2018-06-03 10:37  
Подивився вчора, місцями цікаво, місцями кумедно.
Та якось інакше сприймається цей фільм після серіалу.
Можна булоб за такий час вже продовження зробити фільму.
Було б цікаво.
А так хіба що ремейк з новою графікою ((

Anonymous 







2018-09-04 21:54  
По Новому транслювали з озвученням 1+1.

Додано через 11 хвилин 48 секунд:

Якість була така сама, як і в присутній у цьому релізі доріжці:
Спектр:
Запис з Нового, 04.09.2018 від Bohdan237 https://toloka.to/t6081-10140#1027677 :

*18 кГц піки - блоки реклами

Доріжка 1+1 з цього релізу (запис 2011 року):

Ваш часовий пояс: GMT + 2 Години

Нова тема   Відповісти