На голці / Trainspotting (1996) AVC Ukr/Eng | Sub Eng

Нові коментарі

Нова тема   Відповісти
Автор Повідомлення
staf777 
Відео Гуртом - підтримка та поширення
Відео Гуртом - підтримка та поширення


З нами з: 16.11.16
Востаннє: 23.04.19
Повідомлень: 2285

2018-05-31 17:51  
На голці / Trainspotting (1996) AVC Ukr/Eng | Sub Eng

На голці / Trainspotting (1996) AVC Ukr/Eng | Sub Eng


Жанр: драма, кримінал
Країна: Велика Британія



Кінокомпанія: Channel Four Films
Режисер: Денні Бойл (Danny Boyle)
Актори: Еван МакҐреґор (Ewan McGregor), Евен Бреммер (Ewen Bremner), Джонні Лі Міллер (Jonny Lee Miller), Кевін МакКідд (Kevin McKidd), Роберт Карлайл (Robert Carlyle), Келлі Макдональд (Kelly Macdonald), Пітер Маллен (Peter Mullan) та інші.

Сюжет:
Вибирай життя. Вибирай роботу. Вибирай кар'єру. Обирай сім'ю. Обирай великі телевізори, пральні машини, автомобілі, компакт-диск плейери, електричні консервні ножі. Обирай хороше здоров'я, низький рівень холестерину і стоматологічну страховку.

Обирай нерухомість і акуратно виплачуй внески. Вибери свій перший будинок. Вибирай своїх друзів. Вибери собі курорт і шикарні валізи. Вибери костюм-трійку кращої фірми з матеріалу найдорожчого. Вибери набір «Зроби сам», щоб було чим зайнятися недільним ранком.

Вибери зручний диван, щоб розвалитися на ньому й дивитися тупе шоу. Набивай своє черево всякою всячиною. Вибери загнивання в кінці всього і пригадай з соромом наостанок своїх дружків-покидьків, яких ти заклав щоб видертися. Обирай майбутнє. Вибирай життя.

Але навіщо мені все це? Я не став вибирати життя ... Я вибрав дещо інше ... Чому? Та тому ... Які можуть бути чому, коли ти під кайфом? Коли є героїн ...


Тривалість: 01:33:50
Якість: AVC
Відео:
кодек:
розмір кадру: 1024x576
бітрейт: 3500 кб/с

Аудіо # 1:
мова: українська
переклад: двоголосий закадровий
кодек: 5.1
бітрейт: 384 кб/с

Аудіо # 2:
мова: англійська
переклад: оригінал
кодек: 5.1
бітрейт: 448 кб/с

Субтитри:
мова: англійська
тип: програмні (м'які)
формат: *.srt
Info
General
Unique ID : 170826492656359103202575015863734255778 (0x8083FC5A1F3C681EBD8A8CA6986040A2)
Complete name : H:\Майбутні релізи\Trainspotting (1996) AVC [Ukr][Eng][Sub Eng][Hurtom].
Format :
Format version : Version 4 / Version 2
File size : 2.84 GiB
Duration : 1 h 33 min
Overall bit rate : 4 330 kb/s
Movie name : Trainspotting (1996) AVC [Ukr][Eng][Sub Eng][Hurtom]
Encoded date : UTC 2018-05-31 15:31:30
Writing application : v9.8.0 ('Kuglblids') 64bit
Writing library : libebml v1.3.4 + v1.4.5
Cover : Yes
Attachments : cover.jpg

Video
ID : 1
Format : AVC
Format/Info : Advanced Video Codec
Format profile : [email protected]
Format settings : CABAC / 8 Ref Frames
Format settings, CABAC : Yes
Format settings, ReFrames : 8 frames
Codec ID : V_MPEG4/ISO/AVC
Duration : 1 h 33 min
Bit rate : 3 500 kb/s
Width : 1 024 pixels
Height : 576 pixels
Display aspect ratio : 16:9
Frame rate mode : Constant
Frame rate : 23.976 (24000/1001) FPS
Color space : YUV
Chroma subsampling : 4:2:0
Bit depth : 8 bits
Scan type : Progressive
Bits/(Pixel*Frame) : 0.247
Stream size : 2.29 GiB (81%)
Title : Rip by Enigma-Vladislav71
Writing library : core 129 r2245 bc13772
Encoding settings : cabac=1 / ref=8 / deblock=1:-2:-2 / analyse=0x3:0x133 / me=umh / subme=11 / psy=1 / psy_rd=1.00:0.00 / mixed_ref=1 / me_range=48 / chroma_me=1 / trellis=2 / 8x8dct=1 / cqm=0 / deadzone=21,11 / fast_pskip=0 / chroma_qp_offset=-2 / threads=3 / lookahead_threads=1 / sliced_threads=0 / nr=0 / decimate=0 / interlaced=0 / bluray_compat=0 / constrained_intra=0 / bframes=8 / b_pyramid=2 / b_adapt=2 / b_bias=0 / direct=3 / weightb=1 / open_gop=0 / weightp=2 / keyint=240 / keyint_min=23 / scenecut=40 / intra_refresh=0 / rc=2pass / mbtree=0 / bitrate=3500 / ratetol=1.0 / qcomp=0.60 / qpmin=10 / qpmax=51 / qpstep=4 / cplxblur=20.0 / qblur=0.5 / ip_ratio=1.40 / pb_ratio=1.30 / aq=2:1.00
Language : English
Default : No
Forced : No

Audio #1
ID : 2
Format : AC-3
Format/Info : Audio Coding 3
Codec ID : A_AC3
Duration : 1 h 33 min
Bit rate mode : Constant
Bit rate : 384 kb/s
Channel(s) : 6 channels
Channel positions : Front: L C R, Side: L R, LFE
Sampling rate : 48.0 kHz
Frame rate : 31.250 FPS (1536 SPF)
Bit depth : 16 bits
Compression mode : Lossy
Stream size : 258 MiB (9%)
Title : [UA-MVO-GAMMA]
Language : Ukrainian
Service kind : Complete Main
Default : Yes
Forced : Yes

Audio #2
ID : 3
Format : AC-3
Format/Info : Audio Coding 3
Codec ID : A_AC3
Duration : 1 h 33 min
Bit rate mode : Constant
Bit rate : 448 kb/s
Channel(s) : 6 channels
Channel positions : Front: L C R, Side: L R, LFE
Sampling rate : 48.0 kHz
Frame rate : 31.250 FPS (1536 SPF)
Bit depth : 16 bits
Compression mode : Lossy
Stream size : 301 MiB (10%)
Title : Английский
Language : English
Service kind : Complete Main
Default : No
Forced : No

Text
ID : 4
Format : UTF-8
Codec ID : S_TEXT/UTF8
Codec ID/Info : UTF-8 Plain Text
Duration : 1 h 33 min
Bit rate : 66 b/s
Count of elements : 1457
Stream size : 45.2 KiB (0%)
Language : English
Default : No
Forced : No

Menu
00:00:00.000 : en:Chapter 01
00:05:00.000 : en:Chapter 02
00:10:00.000 : en:Chapter 03
00:15:00.000 : en:Chapter 04
00:20:00.000 : en:Chapter 05
00:25:00.000 : en:Chapter 06
00:30:00.000 : en:Chapter 07
00:35:00.000 : en:Chapter 08
00:40:00.000 : en:Chapter 09
00:45:00.000 : en:Chapter 10
00:50:00.000 : en:Chapter 11
00:55:00.000 : en:Chapter 12
01:00:00.000 : en:Chapter 13
01:05:00.000 : en:Chapter 14
01:10:00.000 : en:Chapter 15
01:15:00.000 : en:Chapter 16
01:20:00.000 : en:Chapter 17
01:25:00.000 : en:Chapter 18
01:30:00.000 : en:Chapter 19
Скріншоти





Джерело: &
Особиста оцінка: 0 - не дивився


Срібний реліз (на рейтинг впливає 50% завантаженого)
 Трекер:    Зареєстрований   

Завантажити / скачати фільм українською



відео для новачків



 Зареєстрований:   2018-05-31 19:18
 Розмір:   2.84 GB 
 Оцінка фільму:   9.2/10 (Голосів: 18)
   
Інші релізи
   На голці / Trainspotting (1996) 1080p Ukr/Eng | Sub Eng drop_plz  4 / 0   12.08 GB   2018-07-30 07:30 
   На голці / Trainspotting (1996) Remux 1080p Ukr/Eng | Sub Eng staf777  3 / 0   24.8 GB   2018-02-26 19:07 
   На голці / Trainspotting (1996) 720p Ukr/Eng TNT.KOT  8 / 0   2.51 GB   2013-05-12 13:46 
   На голці / Trainspotting (1996) Ukr/Eng robotron005  6 / 0   1.58 GB   2013-02-03 15:18 
bot 
робот


З нами з: 30.09.07
Востаннє: 26.05.05
Повідомлень: 21238

2018-05-31 19:17  
Тему перенесено з Анонси релізів до форуму Фільми


staf777

Drev11 
Свій


З нами з: 24.10.11
Востаннє: 22.04.19
Повідомлень: 103

2018-06-01 15:38  
по Ірвіну Велшу?
don pedro 
Забанено
Забанено


З нами з: 29.06.11
Востаннє: 22.04.19
Повідомлень: 13523

2018-06-01 15:41  
Drev11
Так.

[email protected] 
Новенький


З нами з: 12.09.16
Востаннє: 14.12.18
Повідомлень: 1

2018-06-02 14:14  
На мою думку, це - фільм можна віднести до світових шедеврів, які ламають світосприйняття.
Drev11 
Свій


З нами з: 24.10.11
Востаннє: 22.04.19
Повідомлень: 103

2018-06-05 13:21  
don pedro
дякую

yasav 
Поважний учасник


З нами з: 05.12.17
Востаннє: 23.04.19
Повідомлень: 182

2018-06-05 22:50  
Шедевр!
takispravi 
Свій


З нами з: 24.10.13
Востаннє: 16.04.19
Повідомлень: 59

2018-08-14 10:48  
сьогодні 155 місце в top250imdb - фільм вартий уваги.
налаштуйтесь на серйозне кіно, діалоги та думки.

StepKryha 
Свій


З нами з: 21.06.17
Востаннє: 23.04.19
Повідомлень: 88

2018-11-16 19:08  
Незвичний фільм. Розказана історія досить сумбурна та подекуди депресивна - і це найкраще, що є в цій стрічці. Деякі персонажі дратують, але саме вони і відображають теперішнє суспільство - тут висновок напрошується сам собою.
8 / 10. Для мене у цьому фільмі існує певна недосказаність, але все ж - рекомендую.

Ваш часовий пояс: GMT + 2 Години

Нова тема   Відповісти