Кендімен / Candyman (1992) 1080p Ukr/Eng | Sub Eng

Нові коментарі

Нова тема   Відповісти
Автор Повідомлення
boroznaya 
Попереджень: 1
Попереджень: 1 


З нами з: 02.11.12
Востаннє: 29.09.20
Повідомлень: 2938

2018-05-31 14:30  
Кендімен / Candyman (1992) 1080p Ukr/Eng | Sub Eng

Кендімен / Candyman (1992) 1080p Ukr/Eng | Sub Eng


Жанр: жахи, трилер, драма
Країна: США



Кінокомпанія: PolyGram Filmed Entertainment, Propaganda Films
Режисер: Бернард Роуз
Актори: Вірджинія Медсен, Тоні Тодд, Ксандер Берклі, Кейсі Леммонс, Ванесса Вільямс, ДеЖуан Гай, Маріанна Елліотт, Тед Реймі, Ріа Павіа, Марк Деніелз

Сюжет:
У жителів віддалених кварталів Чикаґо існує легенда про загадкового маніяка по прізвиську Кендімен, мешканця паралельного світу. Йому не потрібен ніж, щоб наносити рани: протез руки у вигляді крюка - ідеальне знаряддя злочину. Поки Кендімен знаходиться за гранню реальності. Але якщо встати перед дзеркалом і п'ять разів підряд вимовити його ім'я, він перейде цю хитку межу. І тоді нікому не вдасться врятуватися. За вивчення цієї легенди береться група молодих учених, які не вірять в таємничого Кендімена. Але у будь-який момент замість свого віддзеркалення в дзеркалі вони можуть побачити вбивцю...


Тривалість: 01:39:19
Якість: 1080p
Відео:
кодек:
розмір кадру: 1920х1040
бітрейт: 9 945 кб/с

Аудіо # 1:
мова: українська
переклад: багатоголосий закадровий
кодек: 2.0
бітрейт: 192 кб/с

Аудіо # 2:
мова: англійська
переклад: оригінал
кодек: 2.0
бітрейт: 1510 кб/с

Субтитри:
мова: англійська
тип: програмні (м'які)
формат: *.srt
Info
D:\Фільми\Готові релізи\Candyman (1992) [ukr, Eng, sub. Eng] 1080p [Hurtom] by Zhuk_Mikola.
General
Unique ID : 181141730202904276762790344095054606187 (0x8846A0D42DB9A23A9474E9D4B836AF6B)
Complete name : D:\Фільми\Готові релізи\Candyman (1992) [ukr, Eng, sub. Eng] 1080p [Hurtom] by Zhuk_Mikola.
Format :
Format version : Version 4 / Version 2
File size : 8.08 GiB
Duration : 1h 39mn
Overall bit rate : 11.6 Mbps
Encoded date : UTC 2018-05-31 10:50:46
Writing application : v20.0.0 ('I Am The Sun') 64-bit
Writing library : libebml v1.3.5 + v1.4.8
DURATION : 01:39:19.584000000
NUMBER_OF_FRAMES : 186237
NUMBER_OF_BYTES : 143030016
_STATISTICS_WRITING_APP : v20.0.0 ('I Am The Sun') 64-bit
_STATISTICS_WRITING_DATE_UTC : 2018-05-31 10:50:46
_STATISTICS_TAGS : BPS DURATION NUMBER_OF_FRAMES NUMBER_OF_BYTES

Video #1
ID : 1
Format : AVC
Format/Info : Advanced Video Codec
Format profile : [email protected]
Format settings, CABAC : Yes
Format settings, ReFrames : 4 frames
Codec ID : V_MPEG4/ISO/AVC
Duration : 1h 39mn
Bit rate : 9 945 Kbps
Width : 1 920 pixels
Height : 1 040 pixels
Display aspect ratio : 16:9
Frame rate : 23.976 fps
Color space : YUV
Chroma subsampling : 4:2:0
Bit depth : 8 bits
Scan type : Progressive
Bits/(Pixel*Frame) : 0.208
Stream size : 6.74 GiB (83%)
Writing library : core 118 r2085 8a62835
Encoding settings : cabac=1 / ref=4 / deblock=1:0:0 / analyse=0x3:0x113 / me=umh / subme=8 / psy=1 / psy_rd=1.00:0.00 / mixed_ref=1 / me_range=16 / chroma_me=1 / trellis=1 / 8x8dct=1 / cqm=0 / deadzone=21,11 / fast_pskip=1 / chroma_qp_offset=-2 / threads=12 / sliced_threads=0 / nr=0 / decimate=1 / interlaced=0 / bluray_compat=0 / constrained_intra=0 / bframes=3 / b_pyramid=2 / b_adapt=2 / b_bias=0 / direct=3 / weightb=1 / open_gop=0 / weightp=2 / keyint=240 / keyint_min=24 / scenecut=40 / intra_refresh=0 / rc_lookahead=50 / rc=2pass / mbtree=1 / bitrate=9945 / ratetol=1.0 / qcomp=0.60 / qpmin=0 / qpmax=69 / qpstep=4 / cplxblur=20.0 / qblur=0.5 / ip_ratio=1.40 / aq=1:1.00
Language : English
Default : Yes
Forced : No
DURATION : 01:39:19.537000000
NUMBER_OF_FRAMES : 142886
NUMBER_OF_BYTES : 7404648965
_STATISTICS_WRITING_APP : v20.0.0 ('I Am The Sun') 64-bit
_STATISTICS_WRITING_DATE_UTC : 2018-05-31 10:50:46
_STATISTICS_TAGS : BPS DURATION NUMBER_OF_FRAMES NUMBER_OF_BYTES

Audio #2
ID : 2
Format : AC-3
Format/Info : Audio Coding 3
Mode extension : CM (complete main)
Codec ID : A_AC3
Duration : 1h 39mn
Bit rate mode : Constant
Bit rate : 192 Kbps
Channel(s) : 2 channels
Channel positions : Front: L R
Sampling rate : 48.0 KHz
Bit depth : 16 bits
Compression mode : Lossy
Stream size : 136 MiB (2%)
Title : Багатоголосий закадровий, ТРК "Україна"
Language : Ukrainian
Default : Yes
Forced : No

Audio #3
ID : 3
Format :
Format/Info : Digital Theater Systems
Codec ID : A_DTS
Duration : 1h 39mn
Bit rate mode : Constant
Bit rate : 1 510 Kbps
Channel(s) : 2 channels
Channel positions : Front: L R
Sampling rate : 48.0 KHz
Bit depth : 24 bits
Compression mode : Lossy
Stream size : 1.05 GiB (13%)
Language : English
Default : No
Forced : No

Text #4
ID : 4
Format : UTF-8
Codec ID : S_TEXT/UTF8
Codec ID/Info : UTF-8 Plain Text
Language : English
Default : No
Forced : No
Скріншоти









Подяки:
- Запис з ТБ: Sando7, ratbol, MAKAPOHHIK;
- Синхронізація patriot2305;
- Постер Zhuk_Mikola.

Джерело: &
Особиста оцінка: 8 - мені сподобалося

Не забуваємо тиснути "Дякую!"


Срібний реліз (на рейтинг впливає 50% завантаженого)
 Трекер:    Зареєстрований   

Завантажити / скачати фільм українською



відео для новачків



 Зареєстрований:   2018-06-07 09:47
 Розмір:   8.08 GB 
 Оцінка фільму:   7.8/10 (Голосів: 8)
   
Інші релізи
   Кендімен / Candyman (1992) 720p Ukr/Eng | Sub Eng staf777  0 / 0   3.97 GB   2019-05-04 08:52 
   Кендімен / Candyman (1992) AVC Ukr/Eng | Sub Eng staf777  0 / 0   3.36 GB   2019-05-01 20:46 
   Кендімен / Candyman (1992) patriot2305  2 / 0   1.46 GB   2013-11-15 20:12 
bot 
робот


З нами з: 30.09.07
Востаннє: 26.05.05
Повідомлень: 25656

2018-06-07 09:46  
Тему перенесено з Анонси релізів до форуму Фільми в HD


boroznaya

boroznaya 
Попереджень: 1
Попереджень: 1 


З нами з: 02.11.12
Востаннє: 29.09.20
Повідомлень: 2938

2018-06-07 09:51  
Фільм "Кендімен" на роздачі!
Приємного перегляду, Гуртомівці!

+380954897458 
VIP


З нами з: 02.06.17
Востаннє: 18.09.20
Повідомлень: 942

2018-06-07 21:52  
Шикарне кіно! На мій погляд, варте значно вищого рейтингу. Рідко коли фільми жахів виходять такими потужними.
Ваш часовий пояс: GMT + 2 Години

Нова тема   Відповісти