Готика / Gothika (2003) AVC 2xUkr/Eng | Sub Eng

Нові коментарі

Нова тема   Відповісти
Автор Повідомлення
staf777 
Відео Гуртом - підтримка та поширення
Відео Гуртом - підтримка та поширення


З нами з: 16.11.16
Востаннє: 02.07.20
Повідомлень: 3784

2018-05-30 21:55  
Готика / Gothika (2003) AVC 2xUkr/Eng | Sub Eng

Готика / Gothika (2003) AVC 2xUkr/Eng | Sub Eng

«Мертві не завжди йдуть...»



Жанр: містика, трилер, детектив
Країна: США



Кіностудія / кінокомпанія: Columbia Pictures Corporation
Режисер: Матьє Кассовіц (Mathieu Kassovitz)
Актори: Голлі Беррі (Halle Berry), Пенелопа Крус (Penélope Cruz), Роберт Дауні-мол. (Robert Downey Jr.), Чарльз Даттон (Charles S. Dutton) та інші.

Сюжет:
Фільм розповідає про жінку-психіатра, яка одного дня стає пацієнткою лікарні для неосудних злочинців, де вона раніше працювала.
До того ж, її звинувачують у скоєнні жорстокого вбивства, якого вона зовсім не пам'ятає. Намагаючись зрозуміти, що відбувається, вона стає свідком незбагненних містичних подій...


Тривалість: 01:38:07
Якість: AVC
Відео:
кодек:
розмір кадру: 1024x556
бітрейт: 3100 кб/с

Аудіо # 1:
мова: українська
переклад: двоголосий закадровий
кодек: 2.0
бітрейт: 256 кб/с

Аудіо # 2:
мова: українська
переклад: багатоголосий закадровий | Так треба продакшн на замовлення |
кодек: 2.0
бітрейт: 192 кб/с

Аудіо # 3:
мова: англійська
переклад: оригінал
кодек: 5.1
бітрейт: 448 кб/с

Субтитри:
мова: англійська
тип: програмні (м'які)
формат: *.srt
Info
General
Unique ID : 218743602410338321708994763105751208883 (0xA4907C4356EF980AA2AE6387EB2713B3)
Complete name : H:\Майбутні релізи\Gothika (2003) AVC [2xUkr,Eng] [Sub Eng][Hurtom].
Format :
Format version : Version 4 / Version 2
File size : 2.74 GiB
Duration : 1 h 38 min
Overall bit rate : 3 997 kb/s
Movie name : Gothika (2003) AVC [2xUkr,Eng] [Sub Eng][Hurtom]
Encoded date : UTC 2018-05-31 12:53:26
Writing application : v9.8.0 ('Kuglblids') 64bit
Writing library : libebml v1.3.4 + v1.4.5
Cover : Yes
Attachments : cover.jpg

Video
ID : 1
Format : AVC
Format/Info : Advanced Video Codec
Format profile : [email protected]
Format settings : CABAC / 9 Ref Frames
Format settings, CABAC : Yes
Format settings, ReFrames : 9 frames
Codec ID : V_MPEG4/ISO/AVC
Duration : 1 h 38 min
Bit rate : 3 100 kb/s
Width : 1 024 pixels
Height : 556 pixels
Display aspect ratio : 1.85:1
Frame rate mode : Constant
Frame rate : 23.976 (24000/1001) FPS
Color space : YUV
Chroma subsampling : 4:2:0
Bit depth : 8 bits
Scan type : Progressive
Bits/(Pixel*Frame) : 0.227
Stream size : 2.12 GiB (78%)
Title : Gotika.2003...AVC.MediaClub
Writing library : core 142 r2409+42 04be48a tMod [[email protected]:2:0 X86]
Encoding settings : cabac=1 / ref=9 / deblock=1:-2:-2 / analyse=0x3:0x133 / me=umh / subme=11 / psy=1 / fade_compensate=0.00 / psy_rd=1.00:0.20 / mixed_ref=1 / me_range=32 / chroma_me=1 / trellis=2 / 8x8dct=1 / cqm=0 / deadzone=21,11 / fast_pskip=0 / chroma_qp_offset=-3 / threads=3 / lookahead_threads=1 / sliced_threads=0 / nr=0 / decimate=0 / interlaced=0 / bluray_compat=0 / constrained_intra=0 / fgo=0 / bframes=8 / b_pyramid=2 / b_adapt=2 / b_bias=0 / direct=3 / weightb=1 / open_gop=0 / weightp=2 / keyint=240 / keyint_min=23 / scenecut=40 / intra_refresh=0 / rc=2pass / mbtree=0 / bitrate=3100 / ratetol=1.0 / qcomp=0.60 / qpmin=0:0:0 / qpmax=69:69:69 / qpstep=4 / cplxblur=20.0 / qblur=0.5 / ip_ratio=1.40 / pb_ratio=1.30 / aq=1:1.00 / aq-sensitivity=10.00 / aq-factor=1.00:1.00:1.00 / aq2=0 / aq3=0
Language : English
Default : Yes
Forced : No

Audio #1
ID : 2
Format : AC-3
Format/Info : Audio Coding 3
Codec ID : A_AC3
Duration : 1 h 38 min
Bit rate mode : Constant
Bit rate : 256 kb/s
Channel(s) : 2 channels
Channel positions : Front: L R
Sampling rate : 48.0 kHz
Frame rate : 31.250 FPS (1536 SPF)
Bit depth : 16 bits
Compression mode : Lossy
Stream size : 180 MiB (6%)
Title : _DVO_UKR_(1+1)
Language : Ukrainian
Service kind : Complete Main
Default : Yes
Forced : Yes

Audio #2
ID : 3
Format : AC-3
Format/Info : Audio Coding 3
Codec ID : A_AC3
Duration : 1 h 38 min
Bit rate mode : Constant
Bit rate : 192 kb/s
Channel(s) : 2 channels
Channel positions : Front: L R
Sampling rate : 48.0 kHz
Frame rate : 31.250 FPS (1536 SPF)
Bit depth : 16 bits
Compression mode : Lossy
Stream size : 135 MiB (5%)
Title : _MVO_UKR_(ТакТребаПродакшн)
Language : Ukrainian
Service kind : Complete Main
Default : No
Forced : No

Audio #3
ID : 4
Format : AC-3
Format/Info : Audio Coding 3
Codec ID : A_AC3
Duration : 1 h 38 min
Bit rate mode : Constant
Bit rate : 448 kb/s
Channel(s) : 6 channels
Channel positions : Front: L C R, Side: L R, LFE
Sampling rate : 48.0 kHz
Frame rate : 31.250 FPS (1536 SPF)
Bit depth : 16 bits
Compression mode : Lossy
Stream size : 314 MiB (11%)
Title : _ORIGINAL_ENG
Language : English
Service kind : Complete Main
Default : No
Forced : No

Text
ID : 5
Format : UTF-8
Codec ID : S_TEXT/UTF8
Codec ID/Info : UTF-8 Plain Text
Duration : 1 h 32 min
Bit rate : 40 b/s
Count of elements : 789
Stream size : 27.4 KiB (0%)
Title : _SUB_ENG
Language : English
Default : No
Forced : No

Menu
00:00:00.000 : en:00:00:00.000
00:05:00.000 : en:00:05:00.000
00:10:00.000 : en:00:10:00.000
00:15:00.000 : en:00:15:00.000
00:20:00.000 : en:00:20:00.000
00:25:00.000 : en:00:25:00.000
00:30:00.000 : en:00:30:00.000
00:35:00.000 : en:00:35:00.000
00:40:00.000 : en:00:40:00.000
00:45:00.000 : en:00:45:00.000
00:50:00.000 : en:00:50:00.000
00:55:00.000 : en:00:55:00.000
01:00:00.000 : en:01:00:00.000
01:05:00.000 : en:01:05:00.000
01:10:00.000 : en:01:10:00.000
01:15:00.000 : en:01:15:00.000
01:20:00.000 : en:01:20:00.000
01:25:00.000 : en:01:25:00.000
01:30:00.000 : en:01:30:00.000
01:35:00.000 : en:01:35:00.000
Скріншоти



Джерело: &
Подяки: пану xslim за надану сиру доріжку від студії "ТТП" та пану robotron005 за запис з 1+1 та синхронізацію обох доріжок


Срібний реліз (на рейтинг впливає 50% завантаженого)
 Трекер:    Зареєстрований   

Завантажити / скачати фільм українською



відео для новачків



 Зареєстрований:   2018-05-31 17:32
 Розмір:   2.74 GB 
 Оцінка фільму:   8.4/10 (Голосів: 13)
   
Інші релізи
   Готика / Gothika (2003) 1080p H.265 2xUkr/Eng | Sub Eng -Star-Lord-  3 / 0   7.2 GB   2020-01-11 18:38 
   Готика / Gothika (2003) Remux 1080p 2xUkr/Eng | Sub Eng staf777  4 / 0   21.7 GB   2017-01-28 22:59 
   Готика / Gothika (2003) 720р 2xUkr/Eng | Sub Eng 11FrYkT  1 / 0   5.43 GB   2012-08-06 23:12 
   Готика / Gothika (2003) 2хUkr/Eng robotron005  6 / 0   1.73 GB   2012-01-03 20:26 
arseniy.bochkar 
Новенький


З нами з: 28.03.14
Востаннє: 13.06.20
Повідомлень: 1

2020-05-15 15:06  
Росинхронізація відео та звуку.
Ваш часовий пояс: GMT + 2 Години

Нова тема   Відповісти