Поїздка в Америку / Coming to America (1988) AVC 2хUkr/Eng | Sub Eng

Нові коментарі

Нова тема   Відповісти
Автор Повідомлення
staf777 
Відео Гуртом - підтримка та поширення
Відео Гуртом - підтримка та поширення


З нами з: 16.11.16
Востаннє: 23.04.19
Повідомлень: 2285

2018-05-29 23:25  
Поїздка в Америку / Coming to America (1988) AVC 2хUkr/Eng | Sub Eng

Поїздка в Америку / Coming to America (1988) AVC 2хUkr/Eng | Sub Eng


Жанр: комедія, мелодрама
Країна: США



Кінокомпанія: Paramount Pictures, Eddie Murphy Productions
Режисер: Джон Лендіс / John Landis
Актори: Едді Мерфі / Eddie Murphy, Шері Гедлі / Shari Headley, Арсеніо Гол / Arsenio Hall, Джеймс Ерл Джонс / James Earl Jones, Джон Еймос / John Amos, Медж Сінклейр / Madge Sinclair, Пол Бейтс / Paul Bates, Ерік Ла Саль / Eriq La Salle, Френкі Фейсон / Frankie Faison та інші

Сюжет:
Принц-спадкоємець африканської держави в компанії свого вірного друга хоче знайти собі дружину і їде для цього в Америку. У Штатах принц Акім видає себе за бідного. Заради своєї новоспеченої подружки Лізи МакДавел він влаштовується працювати у закусочну її батька. Дівчина і не підозрює, ким насправді є її скромний залицяльник.


Тривалість: 01:56:48
Якість: AVC
Відео:
кодек:
розмір кадру: 960x540 кб/с
бітрейт: 2880 кб/с

Аудіо # 1:
мова: українська
переклад: двоголосий закадровий
кодек: 2.0
бітрейт: 192 кб/с

Аудіо # 2:
мова: українська
переклад: багатоголосий закадровий
кодек: 2.0
бітрейт: 192 кб/с

Аудіо # 3:
мова: англійська
переклад: оригінал
кодек: 5.1
бітрейт: 640 кб/с

Субтитри:
мова: англійська
тип: програмні (м'які)
формат: *.srt
Info
General
Unique ID : 194180136346618152522157230111008702193 (0x9215BBE2263A096E948B4955AD933EF1)
Complete name : H:\» Українське озвучення » Фільми\Комедія\Coming to America (1988) AVC [2xUkr,Eng] [Sub Eng][Hurtom].
Format :
Format version : Version 4 / Version 2
File size : 3.19 GiB
Duration : 1 h 56 min
Overall bit rate : 3 907 kb/s
Movie name : Coming to America (1988) AVC [2xUkr,Eng] [Sub Eng][Hurtom]
Encoded date : UTC 2018-05-30 17:07:11
Writing application : v9.8.0 ('Kuglblids') 64bit
Writing library : libebml v1.3.4 + v1.4.5
Cover : Yes
Attachments : cover.jpg

Video
ID : 1
Format : AVC
Format/Info : Advanced Video Codec
Format profile : [email protected]
Format settings : CABAC / 8 Ref Frames
Format settings, CABAC : Yes
Format settings, ReFrames : 8 frames
Codec ID : V_MPEG4/ISO/AVC
Duration : 1 h 56 min
Bit rate : 2 881 kb/s
Width : 960 pixels
Height : 540 pixels
Display aspect ratio : 16:9
Frame rate mode : Constant
Frame rate : 23.976 (24000/1001) FPS
Color space : YUV
Chroma subsampling : 4:2:0
Bit depth : 8 bits
Scan type : Progressive
Bits/(Pixel*Frame) : 0.232
Stream size : 2.35 GiB (74%)
Writing library : core 125 r2208 d9d2288
Encoding settings : cabac=1 / ref=8 / deblock=1:-3:-3 / analyse=0x3:0x133 / me=umh / subme=11 / psy=1 / psy_rd=1.00:0.00 / mixed_ref=1 / me_range=32 / chroma_me=1 / trellis=2 / 8x8dct=1 / cqm=0 / deadzone=21,11 / fast_pskip=0 / chroma_qp_offset=-2 / threads=12 / lookahead_threads=2 / sliced_threads=0 / nr=0 / decimate=1 / interlaced=0 / bluray_compat=0 / constrained_intra=0 / bframes=8 / b_pyramid=2 / b_adapt=2 / b_bias=0 / direct=1 / weightb=1 / open_gop=0 / weightp=2 / keyint=250 / keyint_min=23 / scenecut=40 / intra_refresh=0 / rc=crf / mbtree=0 / crf=17.5 / qcomp=0.60 / qpmin=0 / qpmax=69 / qpstep=4 / ip_ratio=1.40 / pb_ratio=1.30 / aq=2:1.00
Language : English
Default : Yes
Forced : No

Audio #1
ID : 2
Format : AC-3
Format/Info : Audio Coding 3
Codec ID : A_AC3
Duration : 1 h 56 min
Bit rate mode : Constant
Bit rate : 192 kb/s
Channel(s) : 2 channels
Channel positions : Front: L R
Sampling rate : 48.0 kHz
Frame rate : 31.250 FPS (1536 SPF)
Bit depth : 16 bits
Compression mode : Lossy
Stream size : 160 MiB (5%)
Title : [UA-DVO]
Language : Ukrainian
Service kind : Complete Main
Default : Yes
Forced : Yes

Audio #2
ID : 3
Format : AC-3
Format/Info : Audio Coding 3
Codec ID : A_AC3
Duration : 1 h 56 min
Bit rate mode : Constant
Bit rate : 192 kb/s
Channel(s) : 2 channels
Channel positions : Front: L R
Sampling rate : 48.0 kHz
Frame rate : 31.250 FPS (1536 SPF)
Bit depth : 16 bits
Compression mode : Lossy
Stream size : 160 MiB (5%)
Title : [UA-MVO]
Language : Ukrainian
Service kind : Complete Main
Default : No
Forced : No

Audio #3
ID : 4
Format : AC-3
Format/Info : Audio Coding 3
Codec ID : A_AC3
Duration : 1 h 56 min
Bit rate mode : Constant
Bit rate : 640 kb/s
Channel(s) : 6 channels
Channel positions : Front: L C R, Side: L R, LFE
Sampling rate : 48.0 kHz
Frame rate : 31.250 FPS (1536 SPF)
Bit depth : 16 bits
Compression mode : Lossy
Stream size : 535 MiB (16%)
Language : English
Service kind : Complete Main
Default : No
Forced : No

Text
ID : 5
Format : UTF-8
Codec ID : S_TEXT/UTF8
Codec ID/Info : UTF-8 Plain Text
Duration : 1 h 48 min
Bit rate : 61 b/s
Count of elements : 1353
Stream size : 48.7 KiB (0%)
Title : Full
Language : English
Default : No
Forced : No
Скріншоти




Подяка панам POMEO, servus12, taraskill1 за українські аудіодоріжки
Джерело: &
Особиста оцінка: 0 - не дивився


Срібний реліз (на рейтинг впливає 50% завантаженого)
 Трекер:    Зареєстрований   

Завантажити / скачати фільм українською



відео для новачків



 Зареєстрований:   2018-05-30 20:27
 Розмір:   3.19 GB 
 Оцінка фільму:   8/10 (Голосів: 10)
   
don pedro 
Забанено
Забанено


З нами з: 29.06.11
Востаннє: 22.04.19
Повідомлень: 13523

2018-05-31 01:02  
Дивний фільм. Чудовий задум і посереднє виконання. Хоч його і часто колись показували, я жодного разу так і не зміг його додивитись.
Vicarious 
Частий відвідувач


З нами з: 09.01.18
Востаннє: 22.04.19
Повідомлень: 32

2018-05-31 14:02  
Чорна Пантера на мінімалках Wide grin
dreamer 
VIP


З нами з: 10.05.08
Востаннє: 23.04.19
Повідомлень: 472

2018-06-01 13:40  
Vicarious
мені сподобався...може все примітивно але настрій не псує...

Ваш часовий пояс: GMT + 2 Години

Нова тема   Відповісти