Я, Робот / I, Robot [Open Matte] (2004) AVC Ukr/Eng | sub Ukr/Eng

Нові коментарі

Нова тема   Відповісти
Автор Повідомлення
staf777 
Відео Гуртом - підтримка та поширення
Відео Гуртом - підтримка та поширення


З нами з: 16.11.16
Востаннє: 23.10.19
Повідомлень: 2995

2018-05-29 22:49  
Я, Робот / I, Robot [Open Matte] (2004) AVC Ukr/Eng | sub Ukr/Eng

Я, Робот / I, Robot [Open Matte] (2004) AVC Ukr/Eng | sub Ukr/Eng


Жанр: фантастика, бойовик, трилер, детектив
Країна: США, Німеччина



Кінокомпанія: Twentieth Century Fox Film Corporation, Mediastream Vierte Film GmbH & Co. Vermarktungs KG, Davis Entertainment
Режисер: Алекс Пройас / Alex Proyas
Актори: Вілл Сміт / Will Smith, Бріджет Мойнехен / Bridget Moynahan, Алан Тудик / Alan Tudyk, Чі МакБрайд / Chi McBride, Джеймс Кромуелл / James Cromwell, Шиа ЛаБеф / Shia LaBeouf, Брюс Грінвуд / Bruce Greenwood, Адріан Рікард / Adrian Ricard, Джеррі Вассерман / Jerry Wasserman, Фіона Хоган / Fiona Hogan, Пітер Шинкода / Peter Shinkoda та інші

Сюжет:
Дія фільму відбувається в далекому майбутньому (2035 р.), де роботи є звичайними помічниками людини. Головний герой - поліцейський, що «не переварює» роботів, розслідує справу про вбивство, в якому замішаний робот.

Мова йде про можливе порушення «Закону про роботів» (робот ніколи не підніме руку на людину), що, в принципі, неможливо. Ситуація близька до катастрофічної: Якщо машини можуть порушувати цей закон, то вже ніщо не зупинить їх від захоплення контролю над людьми, тим більше, що людство вже давно стало повністю залежне від роботів ...


Тривалість: 01:54:44
Якість: AVC [Open Matte]
Відео:
кодек:
розмір кадру: 1024х576
бітрейт: 3007 кб/с

Аудіо # 1:
мова: українська
переклад: багатоголосий закадровий
кодек: 5.1
бітрейт: 448 кб/с

Аудіо # 2:
мова: англійська
переклад: оригінал
кодек: 5.1
бітрейт: 384 кб/с

Субтитри:
мова: українська
тип: програмні (м'які)
формат: *.srt

Субтитри:
мова: англійська
тип: програмні (м'які)
формат: *.srt
Info
General
Unique ID : 208241583607109856009971540065426959455 (0x9CA9DEC26225A833BAEE27F573596C5F)
Complete name : H:\» Українське озвучення » Фільми\Фантастика\I, Robot [Open Matte] (2004) AVC [UKR_ENG] [Hurtom].
Format :
Format version : Version 4 / Version 2
File size : 3.08 GiB
Duration : 1 h 54 min
Overall bit rate : 3 841 kb/s
Movie name : I, Robot [Open Matte] (2004) AVC [UKR_ENG] [Hurtom]
Encoded date : UTC 2018-05-31 12:16:57
Writing application : v9.8.0 ('Kuglblids') 64bit
Writing library : libebml v1.3.4 + v1.4.5
Cover : Yes
Attachments : cover.jpg

Video
ID : 1
Format : AVC
Format/Info : Advanced Video Codec
Format profile : [email protected]
Format settings : CABAC / 8 Ref Frames
Format settings, CABAC : Yes
Format settings, ReFrames : 8 frames
Codec ID : V_MPEG4/ISO/AVC
Duration : 1 h 54 min
Bit rate : 3 007 kb/s
Width : 1 024 pixels
Height : 576 pixels
Display aspect ratio : 16:9
Frame rate mode : Constant
Frame rate : 23.976 (24000/1001) FPS
Color space : YUV
Chroma subsampling : 4:2:0
Bit depth : 8 bits
Scan type : Progressive
Bits/(Pixel*Frame) : 0.213
Stream size : 2.41 GiB (78%)
Title : Rip by 0ptimus
Writing library : core 133 r2334 a3ac64b
Encoding settings : cabac=1 / ref=8 / deblock=1:-3:-3 / analyse=0x3:0x113 / me=umh / subme=11 / psy=1 / psy_rd=1.00:0.20 / mixed_ref=1 / me_range=48 / chroma_me=1 / trellis=2 / 8x8dct=1 / cqm=0 / deadzone=21,11 / fast_pskip=0 / chroma_qp_offset=-3 / threads=4 / lookahead_threads=1 / sliced_threads=0 / nr=0 / decimate=0 / interlaced=0 / bluray_compat=0 / constrained_intra=0 / bframes=10 / b_pyramid=2 / b_adapt=2 / b_bias=0 / direct=3 / weightb=1 / open_gop=0 / weightp=2 / keyint=240 / keyint_min=23 / scenecut=40 / intra_refresh=0 / rc_lookahead=40 / rc=2pass / mbtree=0 / bitrate=3007 / ratetol=1.0 / qcomp=0.60 / qpmin=0 / qpmax=69 / qpstep=4 / cplxblur=20.0 / qblur=0.5 / vbv_maxrate=50000 / vbv_bufsize=50000 / nal_hrd=none / ip_ratio=1.40 / pb_ratio=1.30 / aq=1:1.00
Language : English
Default : Yes
Forced : Yes

Audio #1
ID : 2
Format : AC-3
Format/Info : Audio Coding 3
Codec ID : A_AC3
Duration : 1 h 54 min
Bit rate mode : Constant
Bit rate : 448 kb/s
Channel(s) : 6 channels
Channel positions : Front: L C R, Side: L R, LFE
Sampling rate : 48.0 kHz
Frame rate : 31.250 FPS (1536 SPF)
Bit depth : 16 bits
Compression mode : Lossy
Stream size : 368 MiB (12%)
Title : [UA-MVO]
Language : Ukrainian
Service kind : Complete Main
Default : Yes
Forced : Yes

Audio #2
ID : 3
Format : AC-3
Format/Info : Audio Coding 3
Codec ID : A_AC3
Duration : 1 h 54 min
Bit rate mode : Constant
Bit rate : 384 kb/s
Channel(s) : 6 channels
Channel positions : Front: L C R, Side: L R, LFE
Sampling rate : 48.0 kHz
Frame rate : 31.250 FPS (1536 SPF)
Bit depth : 16 bits
Compression mode : Lossy
Stream size : 315 MiB (10%)
Title : 5.1 @ 384 kbps
Language : English
Service kind : Complete Main
Default : No
Forced : No

Text #1
ID : 4
Format : UTF-8
Codec ID : S_TEXT/UTF8
Codec ID/Info : UTF-8 Plain Text
Duration : 1 h 46 min
Bit rate : 97 b/s
Count of elements : 1143
Stream size : 76.6 KiB (0%)
Language : Ukrainian
Default : No
Forced : No

Text #2
ID : 5
Format : UTF-8
Codec ID : S_TEXT/UTF8
Codec ID/Info : UTF-8 Plain Text
Duration : 1 h 41 min
Bit rate : 59 b/s
Count of elements : 1135
Stream size : 44.0 KiB (0%)
Title : Full
Language : English
Default : No
Forced : No

Menu
00:00:00.000 : :Opening Titles
00:01:46.315 : :Del Spooner
00:03:29.626 : :Spoonerville
00:06:17.919 : :The Chase
00:07:56.893 : :Police Station
00:10:19.077 : Wide grinr. Laning's Hologram
00:12:10.605 : :Lawrence Robertson
00:15:34.684 : :Susan Calvin's Tour of USR
00:17:47.358 : :Sonny
00:22:51.245 : :Factory Floor
00:26:13.405 : :Caught
00:26:58.617 : :The Interrogation
00:33:22.542 : :The Cafe
00:36:02.952 : :Lanning's House
00:41:22.897 : :The End of a Long Day
00:46:07.264 : :NS-5 Rollout
00:49:05.401 : :Following Bread Crumbs
00:52:13.881 : :"You Are Experiencing a Car Accident"
00:55:21.652 : :One on One
00:58:31.091 : :The Cavalry Arrives
01:00:06.144 : :Two Sons
01:01:08.039 : :Spooner's Past
01:07:55.488 : :The Bike
01:08:17.468 : :Sonny's Dream
01:10:23.678 : :Robertson's Office
01:13:16.600 : :Shell Game
01:16:53.192 : :Ghosts in the Machine
01:18:38.839 : :Father and Son
01:20:13.600 : :Ambush
01:21:17.664 : :NS-5s Come On-Line
01:21:56.828 : :Robot Wars
01:27:28.910 : :The Back Door
01:28:57.040 : :The Standoff
01:32:59.032 : :Viki Level
01:34:44.512 : :Unauthorized Entry
01:38:08.841 : :"Save Her!"
01:41:10.272 : :Reconciliation
01:44:14.790 : :Sonny's Future
01:45:02.129 : :End Titles
Скріншоти





Джерела та подяки: ріп відео, оригінальні звук та субтитри - RUTOR; українська доріжка - HQCLUB; українські субтитри - LIONN та igor911(Гуртом)
Джерело: &
Особиста оцінка: 8 - мені сподобалося


Срібний реліз (на рейтинг впливає 50% завантаженого)
 Трекер:    Зареєстрований   

Завантажити / скачати фільм українською



відео для новачків



 Зареєстрований:   2018-05-31 15:45
 Розмір:   3.08 GB 
 Оцінка фільму:   9.9/10 (Голосів: 30)
   
Інші релізи
   Я, Робот / I, Robot (2004) 1080p H.265 Ukr/Eng | Sub Ukr/Eng -Star-Lord-  6 / 0   3.35 GB   2018-09-10 11:40 
   Я, Робот / I, Robot [Open Matte] (2004) Remux 1080p Ukr/Eng | sub Ukr/Eng staf777  2 / 0   22.14 GB   2018-03-26 17:48 
   Я, Робот / I, Robot [Open Matte] (2004) patriot2305  7 / 0   1.45 GB   2014-05-02 22:48 
   Я, Робот / I, Robot [Open Matte] (2004) 1080p Ukr/Eng | sub Ukr/Eng igor911  6 / 0   15.58 GB   2013-08-24 20:42 
   Я, Робот / I, Robot [Open Matte] (2004) 720p Ukr/Eng | sub Ukr/Eng igor911  6 / 0   7.99 GB   2013-08-24 19:34 
   Я, Робот / I, Robot (2004) Ukr/Eng xslim  4 / 0   2.18 GB   2011-04-25 08:45 
xslim 
Відео Гуртом - фільмокрай
Відео Гуртом - фільмокрай


З нами з: 05.03.09
Востаннє: 23.10.19
Повідомлень: 1010

2018-05-30 12:00  
staf777
Якщо треба можу надати сирій звук з 1+1.

staf777 
Відео Гуртом - підтримка та поширення
Відео Гуртом - підтримка та поширення


З нами з: 16.11.16
Востаннє: 23.10.19
Повідомлень: 2995

2018-05-30 14:31  
xslim
Ні дякую в мене є доріжка та укр саби https://toloka.to/t88837

bot 
робот


З нами з: 30.09.07
Востаннє: 26.05.05
Повідомлень: 22332

2018-05-31 15:45  
Тему перенесено з Анонси релізів до форуму Фільми


staf777

Лукавий 
Частий відвідувач


З нами з: 06.09.09
Востаннє: 22.10.19
Повідомлень: 48

2018-06-01 20:32  
Цитата:
Дія фільму відбувається в далекому майбутньому (2035 р.)


Не таке вже й далеке ))

takca_if 
Новенький


З нами з: 07.01.15
Востаннє: 22.10.19
Повідомлень: 1

2018-06-02 00:05  
Лукавий
А якщо зважити на дату виходу фільму ? Йому вже практично 15 років ... )

qwepoi25 
Новенький


З нами з: 18.06.12
Востаннє: 23.10.19
Повідомлень: 4

2018-11-27 23:51  
Цікавий фільм. Свого часу гарно зайшов. Та й тепер залюбки дивлюся, хоча вже дещо застаріла картинка. А вот що застаріло ще більше, так це оригінальні оповідання Азімова. Цікаво читати про роботів з "півтори тисячі ламп всередині" )) Ситаація як з творами Жуля Верна - потихенько з категорії "фантастика" переходить в пригодницькі жанри
S3M4RiL 
Поважний учасник


З нами з: 25.09.16
Востаннє: 22.10.19
Повідомлень: 223

2018-11-29 19:23  
qwepoi25
Ну незнаю. Слухав аудіокнигу років 5-10 тому. Застарілим мені не здавалось. Можливо я просто ігнорував, такі деталі як "півтори тисячі ламп".

Ваш часовий пояс: GMT + 2 Години

Нова тема   Відповісти