Лиси / Foxes (1980) 720p Ukr/Eng

Нові коментарі

Нова тема   Відповісти
Автор Повідомлення
підпільник 
VIP


З нами з: 11.04.12
Востаннє: 28.01.20
Повідомлень: 327

2018-05-29 13:54  
Лиси / Foxes (1980) 720p Ukr/Eng




Жанр: драма
Країна: США



Кінокомпанія: Casablanca Filmworks
Режисер: Едріан Лайн
Актори: Джоді Фостер, Чері Каррі (Annie), Мерлін Каган (Madge), Кендіс Стро (Deirdre), Скотт Байо (Brad), Селлі Келлермен (Mary), Ренді Куейд (Jay), Лоїс Сміт (Mrs. Axman), Адам Фейт (Bryan), Джон Слоун (Loser), Джилл Баррі Богарт

Сюжет:
Історія дорослішання і набуття життєвого досвіду чотирма молодими дівчатами, що живуть в одній квартирі в Лос-Анджелесі. З чого складається їхнє життя? Звичайно ж з сексу, любові, наркотиків, сварок з батьками.


Тривалість: 01:45:26
Якість: 720p
Відео:
кодек:
розмір кадру: 1280 х 692
бітрейт: 8430 кб/с

Аудіо # 1:
мова: українська
переклад: багатоголосий закадровий
кодек: 2.0
бітрейт: 192 кб/с

Аудіо # 2:
мова: англійська
переклад: оригінал
кодек: 2.0
бітрейт: 384 кб/с

.
Info та log
Код:

Format                                   :
Format version                           : Version 4 / Version 2
File size                                : 6.63 GiB
Duration                                 : 1 h 45 min
Overall bit rate                         : 9 007 kb/s
Encoded date                             : UTC 2018-05-29 15:03:12
Writing application                      : v23.0.0 ('The Bride Said No') 64-bit
Writing library                          : libebml v1.3.6 + v1.4.9
Cover                                    : Yes
Attachments                              : cover.png

Video
ID                                       : 1
Format                                   : AVC
Format/Info                              : Advanced Video Codec
Format profile                           : [email protected]
Format settings, CABAC                   : Yes
Format settings, ReFrames                : 8 frames
Codec ID                                 : V_MPEG4/ISO/AVC
Duration                                 : 1 h 45 min
Bit rate                                 : 8 430 kb/s
Width                                    : 1 280 pixels
Height                                   : 692 pixels
Display aspect ratio                     : 1.85:1
Frame rate mode                          : Constant
Frame rate                               : 23.976 (24000/1001) FPS
Color space                              : YUV
Chroma subsampling                       : 4:2:0
Bit depth                                : 8 bits
Scan type                                : Progressive
Bits/(Pixel*Frame)                       : 0.397
Stream size                              : 6.21 GiB (94%)
Writing library                          : core 67 r1163M 3f56e27
Encoding settings                        : cabac=1 / ref=8 / deblock=1:-3:-3 / analyse=0x3:0x113 / me=umh / subme=9 / psy_rd=0.8:0.7 / mixed_ref=1 / me_range=16 / chroma_me=1 / trellis=2 / 8x8dct=1 / cqm=2 / deadzone=21,11 / chroma_qp_offset=0 / threads=3 / nr=0 / decimate=1 / mbaff=0 / bframes=3 / b_pyramid=1 / b_adapt=2 / b_bias=0 / direct=3 / wpredb=1 / keyint=250 / keyint_min=25 / scenecut=40 / rc=2pass / bitrate=8430 / ratetol=1.0 / qcomp=1.00 / qpmin=10 / qpmax=51 / qpstep=4 / cplxblur=20.0 / qblur=0.5 / vbv_maxrate=50000 / vbv_bufsize=50000 / ip_ratio=1.40 / pb_ratio=1.30 / aq=1:1.00
Language                                 : English
Default                                  : Yes
Forced                                   : No

Audio #1
ID                                       : 2
Format                                   : AC-3
Format/Info                              : Audio Coding 3
Mode extension                           : CM (complete main)
Format settings, Endianness              : Big
Codec ID                                 : A_AC3
Duration                                 : 1 h 45 min
Bit rate mode                            : Constant
Bit rate                                 : 192 kb/s
Channel(s)                               : 2 channels
Channel positions                        : Front: L R
Sampling rate                            : 48.0 kHz
Frame rate                               : 31.250 FPS (1536 spf)
Bit depth                                : 16 bits
Compression mode                         : Lossy
Stream size                              : 145 MiB (2%)
Default                                  : Yes
Forced                                   : No

Audio #2
ID                                       : 3
Format                                   : AC-3
Format/Info                              : Audio Coding 3
Mode extension                           : CM (complete main)
Format settings, Endianness              : Big
Codec ID                                 : A_AC3
Duration                                 : 1 h 45 min
Bit rate mode                            : Constant
Bit rate                                 : 384 kb/s
Channel(s)                               : 2 channels
Channel positions                        : Front: L R
Sampling rate                            : 48.0 kHz
Frame rate                               : 31.250 FPS (1536 spf)
Bit depth                                : 16 bits
Compression mode                         : Lossy
Stream size                              : 290 MiB (4%)
Title                                    : Original @ DD 2.0 @ 384 kbps
Language                                 : English
Default                                  : No
Forced                                   : No

Код:
[info]: slice I:2967  Avg QP:18.53  size: 72419
[info]: slice P:44506 Avg QP:19.52  size: 69025
[info]: slice B:104193 Avg QP:21.78  size: 32419
.
Скріншоти

















.
демонстрація
Джерело: &

Особиста оцінка: Був здивований роком випуску. Заходить як сучасне. Тільки без сісьок/пісьок/матюків.
Які доречні в порнографічному кіні, а не в художньому. В цілому прелестно і актуально.


Срібний реліз (на рейтинг впливає 50% завантаженого)
 Трекер:    Зареєстрований   

Завантажити / скачати фільм українською



відео для новачків



 Зареєстрований:   2018-05-30 00:17
 Розмір:   6.63 GB 
 Оцінка фільму:   10/10 (Голосів: 5)
   
Інші релізи
   Лиси / Foxes (1980) Ukr/Eng Arsenfpu  2 / 0   1.84 GB   2016-09-28 18:49 
rudder1992 
Свій


З нами з: 25.02.17
Востаннє: 28.01.20
Повідомлень: 114

2019-06-13 20:38  
ніхто не бажає стати на роздачу?)
Ваш часовий пояс: GMT + 2 Години

Нова тема   Відповісти