Поштофікація / Going Postal (2010) 1080p Ukr/Eng

Нові коментарі

Нова тема   Відповісти
Автор Повідомлення
Kaizoku 
Новенький


З нами з: 07.04.16
Востаннє: 15.02.19
Повідомлень: 22

2018-05-28 19:31  
Поштофікація / Going Postal (2010) 1080p Ukr/Eng

Поштофікація / Going Postal (2010) 1080p Ukr/Eng


Жанр: комедія, романтичний, пригодницький, фентезі, сімейний
Країна: Велика Британія



Кінокомпанія: Hollywood Pictures
Режисер: Джон Джонс
Актори: Річард Коїл, Девід Суше, Клер Фой, Чарльз Денс

Сюжет:
Неймовірний плаский світ, написаний відомим британським письменником Террі Праттчетом, знову оживає в екранізації. І на цей раз ви дізнаєтесь, про створення оновленої Пошти Анк Морпорку.
Мокрун фон Псевдогуб талановитий шахрай, який вляпався по самі вуха, привернувши до себе цілеспрямований погляд правителя Анк Морпорка, лорда Ветенарі. Шибениця чи відновлення Пошти - важкий вибір для головного персонажа. Це ж не просто доставка усіх накопичених листів, а ще й нерівна боротьба з конкурентом - телеграфом.
От і втечі з махінаціями не вдаються. Та ще й на шляху непробивною стіною стало ... кохання!
Що з цього всього вийде побачите самі!


Тривалість: 2 серії по 01:32:52
Якість: 1080p
Відео:
кодек:
розмір кадру: 1920х1080
бітрейт: 3816 кб/с

Аудіо#1:
мова: українська
переклад: багатоголосий закадровий
кодек: 2.0
бітрейт: 128 кб/с

Аудіо#2: (окремим файлом)
мова: англійська
переклад: оригінал
кодек: MP3
бітрейт: 256 кб/с

Джерело озвучення:
Info
[code]Загальна інформація
General
Unique ID : 65486261805487959680706552517663049372 (0x314431FC47577875F0BD52A92076C69C)
Complete name : D:\Eredelka\Відео\Поштофікація\Going Postal 1 ua.
Format :
Format version : Version 4 / Version 2
File size : 2.73 GiB
Duration : 1 h 32 min
Overall bit rate mode : Variable
Overall bit rate : 4 202 kb/s
Encoded date : UTC 2019-01-16 11:18:28
Writing application : v20.0.0 ('I Am The Sun') 64-bit
Writing library : libebml v1.3.5 + v1.4.8

Video
ID : 2
Format : AVC
Format/Info : Advanced Video Codec
Format profile : [email protected]
Format settings : CABAC / 2 Ref Frames
Format settings, CABAC : Yes
Format settings, ReFrames : 2 frames
Format settings, GOP : M=2, N=13
Codec ID : V_MPEG4/ISO/AVC
Duration : 1 h 32 min
Bit rate mode : Variable
Bit rate : 3 815 kb/s
Maximum bit rate : 4 000 kb/s
Width : 1 920 pixels
Height : 1 080 pixels
Display aspect ratio : 16:9
Frame rate mode : Constant
Frame rate : 25.000 FPS
Color space : YUV
Chroma subsampling : 4:2:0
Bit depth : 8 bits
Scan type : Progressive
Bits/(Pixel*Frame) : 0.074
Stream size : 2.47 GiB (91%)
Language : English
Default : Yes
Forced : No

Audio #1
ID : 1
Format :
Format/Info : Advanced Audio Codec
Format profile : LC
Codec ID : A_AAC-2
Duration : 1 h 32 min
Bit rate : 128 kb/s
Channel(s) : 2 channels
Channel positions : Front: L R
Sampling rate : 48.0 kHz
Frame rate : 46.875 FPS (1024 SPF)
Compression mode : Lossy
Stream size : 85.0 MiB (3%)
Language : English
Default : Yes
Forced : No

Audio #2
ID : 3
Format : MPEG Audio
Format version : Version 1
Format profile : Layer 3
Codec ID : A_MPEG/L3
Codec ID/Hint : MP3
Duration : 1 h 32 min
Bit rate mode : Constant
Bit rate : 256 kb/s
Channel(s) : 2 channels
Sampling rate : 44.1 kHz
Frame rate : 38.281 FPS (1152 SPF)
Compression mode : Lossy
Stream size : 170 MiB (6%)
Default : No
Forced : No
Скріншоти
Особиста оцінка: 9 - давно не бачив настільки якісне кіно


Золотий реліз (завантажене не впливає на рейтинг)
 Трекер:    Зареєстрований   

Завантажити / скачати фільм українською



відео для новачків



 Зареєстрований:   2019-01-16 13:35
 Розмір:   5.4 GB 
 Оцінка фільму:   9/10 (Голосів: 3)
   
Інші релізи
   Зсув по пошті / Going Postal (2010) 720p Ukr/Eng | Sub Eng leroykendall  11 / 0   9.93 GB   2015-01-20 21:43 
   Зсув по пошті / Going Postal (2010) AngryBirdsUA  18 / 0   2.9 GB   2014-09-07 14:23 
Maters 
VIP


З нами з: 27.03.12
Востаннє: 15.02.19
Повідомлень: 1601

2018-05-28 20:22  
Так цей фільм вже ж є на трекері з озвученням від К1. Чого його тут нема, а вказаний тільки любительський переклад?
bot 
робот


З нами з: 30.09.07
Востаннє: 26.05.05
Повідомлень: 20710

2018-05-28 22:24  
Тему перенесено з Фільми до форуму Фільми в HD


igor911

igor911 
Відео Гуртом
Відео Гуртом


З нами з: 18.01.08
Востаннє: 16.02.19
Повідомлень: 12027

2018-05-28 22:30  
1) судячи з лого каналу Sky1 це , треба замінити в ОБОХ заголовках, додати якість "1080p";
2) додати звіт Info;
3) оригінальна доріжка обов'язкова в розділі HD, треба її додати.
4)
Kaizoku написано:
Якість:
бітрейт: 127 кб/с
виправити
5) скріншоти мають бути оригінального розміру (1920х1080, зараз чомусь 1919х1079)
6) додати кнопку IMDB

bot 
робот


З нами з: 30.09.07
Востаннє: 26.05.05
Повідомлень: 20710

2018-05-30 09:40  
Тему перенесено з Неоформлене відео до форуму Фільми в HD


igor911

igor911 
Відео Гуртом
Відео Гуртом


З нами з: 18.01.08
Востаннє: 16.02.19
Повідомлень: 12027

2018-05-30 09:40  
Kaizoku написано:

Аудіо#2:
мова: англійська


оновіть, будь ласка, медіаінфо.

t.soohov 
Новенький


З нами з: 08.05.15
Востаннє: 14.02.19
Повідомлень: 5

2018-06-01 12:10  
Несподівано якісне кіно. Тонкий гумор в діалогах, хоч розбирай на цитати. Спочатку різали вуха голоси дублерів, але потім знайшов в тому певний шарм.
Oleksa9 
VIP


З нами з: 17.05.12
Востаннє: 15.02.19
Повідомлень: 338

2018-09-20 05:01  
Велика Британія
igor911 
Відео Гуртом
Відео Гуртом


З нами з: 18.01.08
Востаннє: 16.02.19
Повідомлень: 12027

2019-01-16 14:30  
Kaizoku написано:
Зареєстрований: 2019-01-16 13:35

що змінилось в релізі?

Ваш часовий пояс: GMT + 2 Години

Нова тема   Відповісти