Сторічний старий, який виліз у вікно і зник The 100-Year-Old Man Who Climbed Out the Window and Disappeared / Hundraåringen som klev ut genom fönstret och försvann (2013) 1080p Ukr/Swe | Sub Swe

Нові коментарі

Нова тема   Відповісти
Останній раз роздавалося bvvlad (2020-05-30)
Автор Повідомлення
IronBee 
Поважний учасник


З нами з: 08.02.10
Востаннє: 30.05.20
Повідомлень: 229

2018-05-28 18:58  
Сторічний старий, який виліз у вікно і зник / The 100-Year-Old Man Who Climbed Out the Window and Disappeared / Hundraåringen som klev ut genom fönstret och försvann (2013) 1080p Ukr/Swe | Sub Swe

Сторічний старий, який виліз у вікно і зник The 100-Year-Old Man Who Climbed Out the Window and Disappeared / Hundraåringen som klev ut genom fönstret och försvann (2013) 1080p Ukr/Swe | Sub Swe


Жанр: драма, комедія, пригодницький
Країна: Швеція



Кінокомпанія: Buena Vista International (Sweden), Embassy Films, Film i Väst, FLX, FLX Comedy AB, Nice Drama
Режисер: Фелікс Хернгрен
Актори: Роберт Густафссон, Авар Вікландер, Давид Віберг, Міа Скярінгер, Йенс Хульт, Біанка Крузейро, Алан Форд, Свен Льонн, Девід Шеклтон, Георг Ніколофф

Сюжет:
У день святкування свого сторіччя ювіляр вилазить через вікно будинку престарілих на газон і йде. Іде не кудись, а від чогось. Від безглуздого доживання в богадільні. В першу ж годину він свариться з бандитами і виїжджає в невідомому напрямку. Незабаром стає зрозуміло, що всі сто років його життя - суцільні пригоди. Він, начебто, завжди пливе за течією, але чомусь завжди припливає до улюблених занять - застіль і різного роду вибухів. Перезнайомившись, за різних обставин, з більшістю сильних свого часу - Франко, Труменом, Сталіним - і неабияк вплинувши на історію двадцятого століття, він залишається самим собою.


Тривалість: 01:54:17
Якість: 1080p
Відео:
кодек:
розмір кадру: 1920 х 804
бітрейт: 12,6 Mб/с

Аудіо # 1:
мова: українська (Paramount Comedy)
переклад: багатоголосий закадровий
кодек: 2.0
бітрейт: 192 кб/с

Аудіо # 2:
мова: шведська
переклад: оригінал
кодек: 5.1
бітрейт: 1509 кб/с

Субтитри:
мова: шведська
тип: програмні (м'які)
формат: *.srt
Info
General
Unique ID : 200698766245388731444821639317588129072 (0x96FD2D26AC5990AA7026D355BAA5B530)
Complete name : E:\Films\The 100-Year-Old Man Who Climbed Out the Window and Disappeared Hundraåringen som klev ut genom fönstret och försvann (2013) 1080p UkrSwe Sub Swe[Hurtom].
Format :
Format version : Version 4 / Version 2
File size : 11.4 GiB
Duration : 1 h 54 min
Overall bit rate : 14.3 Mb/s
Encoded date : UTC 2018-05-28 15:16:19
Writing application : v23.0.0 ('The Bride Said No') 64-bit
Writing library : libebml v1.3.6 + v1.4.9

Video
ID : 1
Format : AVC
Format/Info : Advanced Video Codec
Format profile : [email protected]
Format settings : CABAC / 5 Ref Frames
Format settings, CABAC : Yes
Format settings, ReFrames : 5 frames
Codec ID : V_MPEG4/ISO/AVC
Duration : 1 h 54 min
Bit rate : 12.6 Mb/s
Width : 1 920 pixels
Height : 804 pixels
Display aspect ratio : 2.40:1
Frame rate mode : Constant
Frame rate : 24.000 FPS
Color space : YUV
Chroma subsampling : 4:2:0
Bit depth : 8 bits
Scan type : Progressive
Bits/(Pixel*Frame) : 0.339
Stream size : 10.0 GiB (88%)
Writing library : core 140 r2377 1ca7bb9
Encoding settings : cabac=1 / ref=5 / deblock=1:-3:-3 / analyse=0x3:0x133 / me=umh / subme=10 / psy=1 / psy_rd=1.05:0.00 / mixed_ref=1 / me_range=24 / chroma_me=1 / trellis=2 / 8x8dct=1 / cqm=0 / deadzone=21,11 / fast_pskip=0 / chroma_qp_offset=-2 / threads=12 / lookahead_threads=2 / sliced_threads=0 / nr=0 / decimate=0 / interlaced=0 / bluray_compat=0 / constrained_intra=0 / bframes=8 / b_pyramid=2 / b_adapt=2 / b_bias=0 / direct=3 / weightb=1 / open_gop=0 / weightp=2 / keyint=250 / keyint_min=24 / scenecut=40 / intra_refresh=0 / rc_lookahead=60 / rc=crf / mbtree=0 / crf=17.0 / qcomp=0.65 / qpmin=0 / qpmax=69 / qpstep=4 / vbv_maxrate=62500 / vbv_bufsize=78125 / crf_max=0.0 / nal_hrd=none / filler=0 / ip_ratio=1.30 / pb_ratio=1.15 / aq=1:0.70
Language : Swedish
Default : Yes
Forced : No

Audio #1
ID : 2
Format : AC-3
Format/Info : Audio Coding 3
Codec ID : A_AC3
Duration : 1 h 54 min
Bit rate mode : Constant
Bit rate : 192 kb/s
Channel(s) : 2 channels
Channel positions : Front: L R
Sampling rate : 48.0 kHz
Frame rate : 31.250 FPS (1536 SPF)
Bit depth : 16 bits
Compression mode : Lossy
Stream size : 157 MiB (1%)
Title : 2.0 192 кб/с багатоголосий закадровий (Paramount Comedy)
Language : Ukrainian
Service kind : Complete Main
Default : Yes
Forced : No

Audio #2
ID : 3
Format :
Format/Info : Digital Theater Systems
Codec ID : A_DTS
Duration : 1 h 54 min
Bit rate mode : Constant
Bit rate : 1 509 kb/s
Channel(s) : 6 channels
Channel positions : Front: L C R, Side: L R, LFE
Sampling rate : 48.0 kHz
Frame rate : 93.750 FPS (512 SPF)
Bit depth : 24 bits
Compression mode : Lossy
Stream size : 1.20 GiB (11%)
Language : Swedish
Default : No
Forced : No

Text
ID : 4
Format : UTF-8
Codec ID : S_TEXT/UTF8
Codec ID/Info : UTF-8 Plain Text
Duration : 1 h 53 min
Bit rate : 60 b/s
Count of elements : 1106
Stream size : 50.6 KiB (0%)
Language : Swedish
Default : No
Forced : No

Menu
00:00:00.000 : sv:00:00:00.000
00:15:04.917 : sv:00:15:04.917
00:30:15.750 : sv:00:30:15.750
00:44:48.583 : sv:00:44:48.583
00:58:23.083 : sv:00:58:23.083
01:14:06.292 : sv:01:14:06.292
01:31:16.583 : sv:01:31:16.583
01:48:33.750 : sv:01:48:33.750
Скріншоти



За запис звуку з ТБ дякуємо пану Neytreenor'у, за синхронізацію - пану drop_plz, за постер - пану mrgalser

Джерело: &
Особиста оцінка: 10 - без зайвих вагань рекомендую всім!


 Трекер:    Зареєстрований   

Завантажити / скачати фільм українською



відео для новачків



 Зареєстрований:   2018-05-28 18:58
 Розмір:   11.39 GB 
 Оцінка фільму:   9.7/10 (Голосів: 10)
   
victor_v 
Свій


З нами з: 06.12.07
Востаннє: 29.05.20
Повідомлень: 127

2018-05-28 23:56  
Фільм цікавий, рекомендую до перегляду. Щоправда я дивився шведською і не знаю чи переклад в даному релізі вдалий. Але в оригіналі фільм веселий, за умови ,що вам подобається скандинавських гумор. :-)
exitvray 
Свій


З нами з: 17.02.13
Востаннє: 24.05.20
Повідомлень: 57

2018-05-31 00:41  
Кумедний фільм
8,3/10

Ваш часовий пояс: GMT + 2 Години

Нова тема   Відповісти