Сторічний старий, який виліз у вікно і зник (The 100-Year-Old Man Who Climbed Out the Window and Disappeared) / Hundraåringen som klev ut genom fönstret och försvann (2013) Remux Ukr/Swe | Sub Swe

Нові коментарі

Нова тема   Відповісти
Автор Повідомлення
IronBee 
Поважний учасник


З нами з: 08.02.10
Востаннє: 06.12.19
Повідомлень: 225

2018-05-28 17:49  
Сторічний старий, який виліз у вікно і зник / The 100-Year-Old Man Who Climbed Out the Window and Disappeared / Hundraåringen som klev ut genom fönstret och försvann (2013) Remux 1080p Ukr/Swe | Sub Swe

Сторічний старий, який виліз у вікно і зник (The 100-Year-Old Man Who Climbed Out the Window and Disappeared) / Hundraåringen som klev ut genom fönstret och försvann (2013) Remux Ukr/Swe | Sub Swe
Оригінальний постер

Сторічний старий, який виліз у вікно і зник (The 100-Year-Old Man Who Climbed Out the Window and Disappeared) / Hundraåringen som klev ut genom fönstret och försvann (2013) Remux Ukr/Swe | Sub Swe


Жанр: драма, комедія, пригодницький
Країна: Швеція



Кінокомпанія: Buena Vista International (Sweden), Embassy Films, Film i Väst, FLX, FLX Comedy AB, Nice Drama
Режисер: Фелікс Хернгрен
Актори: Роберт Густафссон, Авар Вікландер, Давид Віберг, Міа Скярінгер, Йенс Хульт, Біанка Крузейро, Алан Форд, Свен Льонн, Девід Шеклтон, Георг Ніколофф

Сюжет:
У день святкування свого сторіччя ювіляр вилазить через вікно будинку престарілих на газон і йде. Іде не кудись, а від чогось. Від безглуздого доживання в богадільні. В першу ж годину він свариться з бандитами і виїжджає в невідомому напрямку. Незабаром стає зрозуміло, що всі сто років його життя - суцільні пригоди. Він, начебто, завжди пливе за течією, але чомусь завжди припливає до улюблених занять - застіль і різного роду вибухів. Перезнайомившись, за різних обставин, з більшістю сильних свого часу - Франко, Труменом, Сталіним - і неабияк вплинувши на історію двадцятого століття, він залишається самим собою.


Тривалість: 01:54:17
Якість: Remux 1080p
Відео:
кодек:
розмір кадру: 1920 х 1080
бітрейт: 18 Mб/с

Аудіо # 1:
мова: українська (Paramount Comedy)
переклад: багатоголосий закадровий
кодек: 2.0
бітрейт: 192 кб/с

Аудіо # 2:
мова: шведська
переклад: оригінал
кодек: -HD MA 5.1
бітрейт: 3650 кб/с

Субтитри # 1-2:
мова: шведська
тип: пререндерні
формат: *.PGS
Info
General
Unique ID : 201397926957770053498062148436725975701 (0x9783D46F833E2884DA639CF2480DCA95)
Complete name : E:\Films\The 100-Year-Old Man Who Climbed Out the Window and Disappeared Hundraåringen som klev ut genom fönstret och försvann (2013) Remux 1080p UkrSwe Sub Swe[Hurtom].
Format :
Format version : Version 4 / Version 2
File size : 17.4 GiB
Duration : 1 h 54 min
Overall bit rate mode : Variable
Overall bit rate : 21.9 Mb/s
Encoded date : UTC 2018-05-28 15:08:06
Writing application : v23.0.0 ('The Bride Said No') 64-bit
Writing library : libebml v1.3.6 + v1.4.9

Video
ID : 1
Format : AVC
Format/Info : Advanced Video Codec
Format profile : [email protected]
Format settings : CABAC / 4 Ref Frames
Format settings, CABAC : Yes
Format settings, ReFrames : 4 frames
Codec ID : V_MPEG4/ISO/AVC
Duration : 1 h 54 min
Bit rate mode : Variable
Bit rate : 18.0 Mb/s
Maximum bit rate : 35.0 Mb/s
Width : 1 920 pixels
Height : 1 080 pixels
Display aspect ratio : 16:9
Frame rate mode : Constant
Frame rate : 24.000 FPS
Standard : NTSC
Color space : YUV
Chroma subsampling : 4:2:0
Bit depth : 8 bits
Scan type : Progressive
Bits/(Pixel*Frame) : 0.362
Stream size : 14.4 GiB (82%)
Default : Yes
Forced : No
Color range : Limited
Color primaries : BT.709
Transfer characteristics : BT.709
Matrix coefficients : BT.709

Audio #1
ID : 2
Format : AC-3
Format/Info : Audio Coding 3
Codec ID : A_AC3
Duration : 1 h 54 min
Bit rate mode : Constant
Bit rate : 192 kb/s
Channel(s) : 2 channels
Channel positions : Front: L R
Sampling rate : 48.0 kHz
Frame rate : 31.250 FPS (1536 SPF)
Bit depth : 16 bits
Compression mode : Lossy
Stream size : 157 MiB (1%)
Title : 2.0 192 кб/с багатоголосий закадровий (Paramount Comedy)
Language : Ukrainian
Service kind : Complete Main
Default : Yes
Forced : No

Audio #2
ID : 3
Format :
Format/Info : Digital Theater Systems
Format profile : MA / Core
Codec ID : A_DTS
Duration : 1 h 54 min
Bit rate mode : Variable / Constant
Bit rate : 3 650 kb/s / 1 509 kb/s
Channel(s) : 6 channels
Channel positions : Front: L C R, Side: L R, LFE
Sampling rate : 48.0 kHz
Frame rate : 93.750 FPS (512 SPF)
Bit depth : 24 bits
Compression mode : Lossless / Lossy
Stream size : 2.91 GiB (17%)
Language : Swedish
Default : No
Forced : No

Text #1
ID : 4
Format : PGS
Muxing mode : zlib
Codec ID : S_HDMV/PGS
Codec ID/Info : Picture based subtitle format used on BDs/HD-DVDs
Duration : 1 h 53 min
Bit rate : 30.9 kb/s
Count of elements : 2212
Stream size : 25.0 MiB (0%)
Language : Swedish
Default : No
Forced : No

Text #2
ID : 5
Format : PGS
Muxing mode : zlib
Codec ID : S_HDMV/PGS
Codec ID/Info : Picture based subtitle format used on BDs/HD-DVDs
Duration : 1 h 30 min
Bit rate : 9 233 b/s
Count of elements : 554
Stream size : 5.97 MiB (0%)
Language : Swedish
Default : No
Forced : No

Menu
00:00:00.000 : :Chapter 01
00:15:04.916 : :Chapter 02
00:30:15.750 : :Chapter 03
00:44:48.583 : :Chapter 04
00:58:23.083 : :Chapter 05
01:14:06.291 : :Chapter 06
01:31:16.582 : :Chapter 07
01:48:33.750 : :Chapter 08
01:54:06.500 : :Chapter 09
Скріншоти



За запис звуку з ТБ дякуємо пану Neytreenor'у, за синхронізацію - пану drop_plz, за постер - пану mrgalser'у.

Особиста оцінка: 10 - без зайвих вагань рекомендую всім!


Золотий реліз (завантажене не впливає на рейтинг)
 Трекер:    Зареєстрований   

Завантажити / скачати фільм українською



відео для новачків



 Зареєстрований:   2018-05-28 17:49
 Розмір:   17.45 GB 
 Оцінка фільму:   10/10 (Голосів: 7)
   
Oleksa9 
VIP


З нами з: 17.05.12
Востаннє: 07.12.19
Повідомлень: 386

2018-06-01 16:33  
А ворожу перекладати не треба? ітакпоймут....
Zim 
Новенький


З нами з: 15.12.11
Востаннє: 07.12.19
Повідомлень: 3

2018-06-03 11:20  
Не сподобався, не тратьте свого часу
Lyolic 
VIP


З нами з: 04.08.09
Востаннє: 07.12.19
Повідомлень: 395

2018-06-03 11:43  
Zim
А мені сподобався Happy Та й більшості користувачів IMDb теж.

Ваш часовий пояс: GMT + 2 Години

Нова тема   Відповісти