Книга джунглів 2 / The Jungle Book 2 (2003) 1080p 2xUkr/Eng | Sub Eng

Нові коментарі

Нова тема   Відповісти
Автор Повідомлення
staf777 
Відео Гуртом - підтримка та поширення
Відео Гуртом - підтримка та поширення


З нами з: 16.11.16
Востаннє: 28.02.20
Повідомлень: 3541

2018-05-28 17:36  
Книга джунглів 2 / The Jungle Book 2 (2003) 1080p 2xUkr/Eng | Sub Eng

Книга джунглів 2 / The Jungle Book 2 (2003) 1080p 2xUkr/Eng | Sub Eng


Жанр: анімація, сімейний, пригоди
Країна: США, Австралія



Кінокомпанія: Walt Disney Productions, DisneyToon Studios, Walt Disney Animation Australia
Режисер: Стів Тренберт
Актори: Джон Гудман, Хелей Джоел Осмент, Мае Вітман, Коннор Фанк, Боб Джолес, Тоні Джей, Джон Різ-Девіс, Філл Коллінз.

Сюжет:
Продовження неймовірної історії про дивовижного хлопчика, що виріс в джунглях. Після того, як Мауглі повернувся жити в справжню людську сім'ю, він знайшов справжню дружбу і любов, але його минуле життя в джунглях продовжує нагадувати про себе. Малюк скучив за своїми друзями, які залишилися в лісі. Друзі Мауглі на чолі з веселим ведмедиком Балу теж дуже скучили за своїм «жабеням». Але Балу далеко не єдиний, хто жадає побачити «улюбленця джунглів»: тигр Шер Хан хоче поквитатися із зухвалим вискочкою. Хто зустріне Мауглі у джунглях першим - старі друзі або тигр-людожер? Але нашому маленькому героєві не звикати до небезпеки, адже з найскладніших ситуацій він завжди знаходить вихід!


Тривалість: 01:12:16
Якість: 1080p
Відео:
кодек:
розмір кадру: 1824x1080
бітрейт: 9370 кб/с

Аудіо # 1:
мова: українська
переклад: професійний дубльований | LeDoyen Studio
кодек: 2.0
бітрейт: 192 кб/с

Аудіо # 2:
мова: українська
переклад: багатоголосий закадровий
кодек: 2.0
бітрейт: 192 кб/с

Аудіо # 3:
мова: англійська
переклад: оригінал
кодек: 5.1
бітрейт: 1510 кб/с

Субтитри:
мова: англійська
тип: пререндерні
формат: *.pgs
Info
General
Unique ID : 189069982725755301253566978210491970307 (0x8E3D8DDB9210A19588F057433AB6B303)
Complete name : H:\Майбутні релізи\The Jungle Book 2 (2003) 1080p [2xUkr,Eng] [Sub Eng][Hurtom].
Format :
Format version : Version 4 / Version 2
File size : 5.74 GiB
Duration : 1 h 12 min
Overall bit rate : 11.4 Mb/s
Movie name : The Jungle Book 2 (2003) 1080p [2xUkr,Eng] [Sub Eng][Hurtom]
Encoded date : UTC 2018-05-28 16:39:02
Writing application : v9.8.0 ('Kuglblids') 64bit
Writing library : libebml v1.3.4 + v1.4.5
Cover : Yes
Attachments : cover.jpg

Video
ID : 1
Format : AVC
Format/Info : Advanced Video Codec
Format profile : [email protected]
Format settings : CABAC / 3 Ref Frames
Format settings, CABAC : Yes
Format settings, ReFrames : 3 frames
Codec ID : V_MPEG4/ISO/AVC
Duration : 1 h 12 min
Bit rate : 9 370 kb/s
Width : 1 824 pixels
Height : 1 080 pixels
Display aspect ratio : 5:3
Frame rate mode : Constant
Frame rate : 23.976 (24000/1001) FPS
Color space : YUV
Chroma subsampling : 4:2:0
Bit depth : 8 bits
Scan type : Progressive
Bits/(Pixel*Frame) : 0.198
Stream size : 4.78 GiB (83%)
Title : The Jungle Book 2
Writing library : core 148 r2597 e86f3a1
Encoding settings : cabac=1 / ref=4 / deblock=1:1:1 / analyse=0x3:0x113 / me=umh / subme=10 / psy=1 / psy_rd=0.40:0.00 / mixed_ref=1 / me_range=32 / chroma_me=1 / trellis=2 / 8x8dct=1 / cqm=0 / deadzone=21,11 / fast_pskip=1 / chroma_qp_offset=-2 / threads=6 / lookahead_threads=1 / sliced_threads=0 / nr=0 / decimate=1 / interlaced=0 / bluray_compat=0 / constrained_intra=0 / bframes=16 / b_pyramid=1 / b_adapt=2 / b_bias=0 / direct=2 / weightb=1 / open_gop=1 / weightp=2 / keyint=230 / keyint_min=23 / scenecut=40 / intra_refresh=0 / rc_lookahead=40 / rc=2pass / mbtree=1 / bitrate=9370 / ratetol=10.0 / qcomp=0.60 / qpmin=0 / qpmax=69 / qpstep=4 / cplxblur=20.0 / qblur=0.5 / vbv_maxrate=62500 / vbv_bufsize=78125 / nal_hrd=none / filler=0 / ip_ratio=1.40 / aq=1:0.60
Language : English
Default : Yes
Forced : No

Audio #1
ID : 2
Format : AC-3
Format/Info : Audio Coding 3
Codec ID : A_AC3
Duration : 1 h 12 min
Bit rate mode : Constant
Bit rate : 192 kb/s
Channel(s) : 2 channels
Channel positions : Front: L R
Sampling rate : 48.0 kHz
Frame rate : 31.250 FPS (1536 SPF)
Bit depth : 16 bits
Compression mode : Lossy
Stream size : 99.2 MiB (2%)
Title : [UA-DUB-K1]
Language : Ukrainian
Service kind : Music and Effects
Default : Yes
Forced : Yes

Audio #2
ID : 3
Format : AC-3
Format/Info : Audio Coding 3
Codec ID : A_AC3
Duration : 1 h 12 min
Bit rate mode : Constant
Bit rate : 192 kb/s
Channel(s) : 2 channels
Channel positions : Front: L R
Sampling rate : 48.0 kHz
Frame rate : 31.250 FPS (1536 SPF)
Bit depth : 16 bits
Compression mode : Lossy
Stream size : 99.2 MiB (2%)
Title : [UA-MVO-DVO]
Language : Ukrainian
Service kind : Music and Effects
Default : No
Forced : No

Audio #3
ID : 4
Format :
Format/Info : Digital Theater Systems
Codec ID : A_DTS
Duration : 1 h 12 min
Bit rate mode : Constant
Bit rate : 1 510 kb/s
Channel(s) : 6 channels
Channel positions : Front: L C R, Side: L R, LFE
Sampling rate : 48.0 kHz
Frame rate : 93.750 FPS (512 SPF)
Bit depth : 24 bits
Compression mode : Lossy
Stream size : 782 MiB (13%)
Language : English
Default : No
Forced : No

Text
ID : 5
Format : PGS
Muxing mode : zlib
Codec ID : S_HDMV/PGS
Codec ID/Info : Picture based subtitle format used on BDs/HD-DVDs
Duration : 1 h 11 min
Bit rate : 13.9 kb/s
Count of elements : 1868
Stream size : 7.11 MiB (0%)
Language : English
Default : No
Forced : No
Скріншоти





Подяки:
- xslim за наданий сирий звук
- MutuLI синхронізація

Джерело: &
Особиста оцінка: 10 - без зайвих вагань рекомендую всім!


Срібний реліз (на рейтинг впливає 50% завантаженого)
 Трекер:    Зареєстрований   

Завантажити / скачати мультфільм українською



відео для новачків



 Зареєстрований:   2018-05-28 18:59
 Розмір:   5.74 GB 
 Оцінка мультфільму:   8.2/10 (Голосів: 6)
   
Інші релізи
Ваш часовий пояс: GMT + 2 Години

Нова тема   Відповісти