Книга джунглів 2 / The Jungle Book 2 (2003) Remux 1080p 2xUkr/Eng | Sub Eng

Нові коментарі

Нова тема   Відповісти
Автор Повідомлення
staf777 
Відео Гуртом - підтримка та поширення
Відео Гуртом - підтримка та поширення


З нами з: 16.11.16
Востаннє: 25.02.20
Повідомлень: 3526

2018-05-28 17:03  
Книга джунглів 2 / The Jungle Book 2 (2003) Remux 1080p 2xUkr/Eng | Sub Eng

Книга джунглів 2 / The Jungle Book 2 (2003) Remux 1080p 2xUkr/Eng | Sub Eng


Жанр: анімація, сімейний, пригоди
Країна: США, Австралія



Кінокомпанія: Walt Disney Productions, DisneyToon Studios, Walt Disney Animation Australia
Режисер: Стів Тренберт
Актори: Джон Гудман, Хелей Джоел Осмент, Мае Вітман, Коннор Фанк, Боб Джолес, Тоні Джей, Джон Різ-Девіс, Філл Коллінз.

Сюжет:
Продовження неймовірної історії про дивовижного хлопчика, що виріс в джунглях. Після того, як Мауглі повернувся жити в справжню людську сім'ю, він знайшов справжню дружбу і любов, але його минуле життя в джунглях продовжує нагадувати про себе. Малюк скучив за своїми друзями, які залишилися в лісі. Друзі Мауглі на чолі з веселим ведмедиком Балу теж дуже скучили за своїм «жабеням». Але Балу далеко не єдиний, хто жадає побачити «улюбленця джунглів»: тигр Шер Хан хоче поквитатися із зухвалим вискочкою. Хто зустріне Мауглі у джунглях першим - старі друзі або тигр-людожер? Але нашому маленькому героєві не звикати до небезпеки, адже з найскладніших ситуацій він завжди знаходить вихід!


Тривалість: 01:12:16
Якість: Remux 1080p
Відео:
кодек:
розмір кадру: 1920x1080
бітрейт: 27,8 Mб/с

Аудіо # 1:
мова: українська
переклад: професійний дубльований | LeDoyen Studio
кодек: 2.0
бітрейт: 192 кб/с

Аудіо # 2:
мова: українська
переклад: багатоголосий закадровий
кодек: 2.0
бітрейт: 192 кб/с

Аудіо # 3:
мова: англійська
переклад: оригінал
кодек: -HD MA 5.1
бітрейт: 3072 кб/с

Субтитри # 1-4:
мова: англійська
тип: пререндерні
формат: *.pgs
Info
General
Unique ID : 184989134115748116706390346169518015154 (0x8B2B9C7CB6AEB77BB7F956508BD642B2)
Complete name : H:\» HD українською » Мультфільми в HD\The Jungle Book 2 (2003) Remux 1080p [2xUkr,Eng] [Sub Eng][Hurtom].
Format :
Format version : Version 4 / Version 2
File size : 15.8 GiB
Duration : 1 h 12 min
Overall bit rate mode : Variable
Overall bit rate : 31.2 Mb/s
Movie name : The Jungle Book 2 (2003) Remux 1080p [2xUkr,Eng] [Sub Eng][Hurtom]
Encoded date : UTC 2018-05-28 15:29:10
Writing application : v9.8.0 ('Kuglblids') 64bit
Writing library : libebml v1.3.4 + v1.4.5
Cover : Yes
Attachments : cover.jpg

Video
ID : 1
Format : AVC
Format/Info : Advanced Video Codec
Format profile : [email protected]
Format settings : CABAC / 4 Ref Frames
Format settings, CABAC : Yes
Format settings, ReFrames : 4 frames
Codec ID : V_MPEG4/ISO/AVC
Duration : 1 h 12 min
Bit rate mode : Variable
Bit rate : 27.8 Mb/s
Maximum bit rate : 29.0 Mb/s
Width : 1 920 pixels
Height : 1 080 pixels
Display aspect ratio : 16:9
Frame rate mode : Constant
Frame rate : 23.976 (24000/1001) FPS
Color space : YUV
Chroma subsampling : 4:2:0
Bit depth : 8 bits
Scan type : Progressive
Bits/(Pixel*Frame) : 0.559
Stream size : 14.0 GiB (89%)
Default : Yes
Forced : No

Audio #1
ID : 2
Format : AC-3
Format/Info : Audio Coding 3
Codec ID : A_AC3
Duration : 1 h 12 min
Bit rate mode : Constant
Bit rate : 192 kb/s
Channel(s) : 2 channels
Channel positions : Front: L R
Sampling rate : 48.0 kHz
Frame rate : 31.250 FPS (1536 SPF)
Bit depth : 16 bits
Compression mode : Lossy
Stream size : 99.2 MiB (1%)
Title : [UA-DUB]
Language : Ukrainian
Service kind : Music and Effects
Default : Yes
Forced : Yes

Audio #2
ID : 3
Format : AC-3
Format/Info : Audio Coding 3
Codec ID : A_AC3
Duration : 1 h 12 min
Bit rate mode : Constant
Bit rate : 192 kb/s
Channel(s) : 2 channels
Channel positions : Front: L R
Sampling rate : 48.0 kHz
Frame rate : 31.250 FPS (1536 SPF)
Bit depth : 16 bits
Compression mode : Lossy
Stream size : 99.2 MiB (1%)
Title : UA-MVO-1+1]
Language : Ukrainian
Service kind : Music and Effects
Default : No
Forced : No

Audio #3
ID : 4
Format :
Format/Info : Digital Theater Systems
Format profile : MA / Core
Codec ID : A_DTS
Duration : 1 h 12 min
Bit rate mode : Variable / Constant
Bit rate : 3 072 kb/s / 1 509 kb/s
Channel(s) : 6 channels
Channel positions : Front: L C R, Side: L R, LFE
Sampling rate : 48.0 kHz
Frame rate : 93.750 FPS (512 SPF)
Bit depth : 24 bits
Compression mode : Lossless / Lossy
Stream size : 1.53 GiB (10%)
Language : English
Default : No
Forced : No

Text #1
ID : 5
Format : PGS
Muxing mode : zlib
Codec ID : S_HDMV/PGS
Codec ID/Info : Picture based subtitle format used on BDs/HD-DVDs
Duration : 1 h 11 min
Bit rate : 13.9 kb/s
Count of elements : 1868
Stream size : 7.11 MiB (0%)
Language : English
Default : No
Forced : No

Text #2
ID : 6
Format : PGS
Muxing mode : zlib
Codec ID : S_HDMV/PGS
Codec ID/Info : Picture based subtitle format used on BDs/HD-DVDs
Duration : 1 h 11 min
Bit rate : 20.2 kb/s
Count of elements : 2726
Stream size : 10.4 MiB (0%)
Language : English
Default : No
Forced : No

Text #3
ID : 7
Format : PGS
Muxing mode : zlib
Codec ID : S_HDMV/PGS
Codec ID/Info : Picture based subtitle format used on BDs/HD-DVDs
Duration : 56 min 38 s
Bit rate : 2 924 b/s
Count of elements : 282
Stream size : 1.19 MiB (0%)
Language : English
Default : No
Forced : No

Text #4
ID : 8
Format : PGS
Muxing mode : zlib
Codec ID : S_HDMV/PGS
Codec ID/Info : Picture based subtitle format used on BDs/HD-DVDs
Duration : 1 h 3 min
Bit rate : 4 210 b/s
Count of elements : 470
Stream size : 1.90 MiB (0%)
Language : English
Default : No
Forced : No
Скріншоти




Подяки:
- xslim за наданий сирий звук
- MutuLI синхронізація

Джерело: &
Особиста оцінка: 10 - без зайвих вагань рекомендую всім!


Золотий реліз (завантажене не впливає на рейтинг)
 Трекер:    Зареєстрований   

Завантажити / скачати мультфільм українською



відео для новачків



 Зареєстрований:   2018-05-28 17:55
 Розмір:   15.77 GB 
 Оцінка мультфільму:   8.7/10 (Голосів: 7)
   
Інші релізи
игорь 25 
Свій


З нами з: 02.10.17
Востаннє: 24.02.20
Повідомлень: 89

2018-11-15 13:14  
Тут тривалість: 01:12:25
Ваш часовий пояс: GMT + 2 Години

Нова тема   Відповісти