Полтергейст / Poltergeist [Extended Cut] (2015) AVC Ukr/Eng | Sub Ukr/Eng

Нові коментарі

Нова тема   Відповісти
Автор Повідомлення
staf777 
Відео Гуртом - підтримка та поширення
Відео Гуртом - підтримка та поширення


З нами з: 16.11.16
Востаннє: 22.04.19
Повідомлень: 2283

2018-05-28 16:57  
Полтергейст / Poltergeist [Extended Cut] (2015) AVC Ukr/Eng | Sub Ukr/Eng

Полтергейст / Poltergeist [Extended Cut] (2015) AVC Ukr/Eng | Sub Ukr/Eng
Оригінальний постер

Полтергейст / Poltergeist [Extended Cut] (2015) AVC Ukr/Eng | Sub Ukr/Eng
Жанр: жахи, трилер
Країна: США, Канада



Кінокомпанія: Metro-Goldwyn-Mayer (MGM), Ghost House Pictures, Vertigo Entertainment
Режисер: Ґіл Кінан / Gil Kenan
Актори: Сем Роквелл / Sam Rockwell, Розмарі ДеВітт / Rosemarie DeWitt, Саксон Шарбіно / Saxon Sharbino, Кайл Кетлетт / Kyle Catlett, Кенеді Клементс / Kennedi Clements, Джаред Гарріс / Jared Harris, Джейн Адамс / Jane Adams, Патрік Ґарроу / Patrick Garrow та інші

Сюжет:
Молода родина виявляє, що в їхньому будинку є привиди. Спочатку примари здаються дружелюбними, вони рухають об'єкти, але поступово дії жителів потойбічного світу стають злими. Вони починають тероризувати родину, а потім викрадають молодшу дочку...


Тривалість: 01:40:53
Якість: AVC
Відео:
кодек:
розмір кадру: 1152x480
бітрейт: 2202 кб/с

Аудіо # 1:
мова: українська
переклад: професійний дубльований
кодек: 5.1
бітрейт: 448 кб/с

Аудіо # 2:
мова: англійська
переклад: оригінал
кодек: 5.1
бітрейт: 448 кб/с

Субтитри # 1: (повні)
мова: українська
тип: програмні (м'які)
формат: *.srt

Субтитри #2-4: (повні, SDH, SDH-Colored)
мова: англійська
тип: програмні (м'які)
формат: *.srt
Info
General
Unique ID : 182063027899805014130083331074394052940 (0x88F8104FF0EBADE48676A6E19A8A594C)
Complete name : H:\Майбутні релізи\Poltergeist (2015) [EXTENDED] AVC [Ukr][Eng][Sub Ukr Eng][Hurtom].
Format :
Format version : Version 4 / Version 2
File size : 2.18 GiB
Duration : 1 h 40 min
Overall bit rate : 3 098 kb/s
Movie name : Poltergeist (2015) [EXTENDED] AVC [Ukr][Eng][Sub Ukr Eng][Hurtom]
Encoded date : UTC 2018-05-28 13:41:23
Writing application : v9.8.0 ('Kuglblids') 64bit
Writing library : libebml v1.3.4 + v1.4.5
Cover : Yes
Attachments : cover.jpg

Video
ID : 1
Format : AVC
Format/Info : Advanced Video Codec
Format profile : [email protected]
Format settings : CABAC / 11 Ref Frames
Format settings, CABAC : Yes
Format settings, ReFrames : 11 frames
Codec ID : V_MPEG4/ISO/AVC
Duration : 1 h 40 min
Bit rate : 2 202 kb/s
Width : 1 152 pixels
Height : 480 pixels
Display aspect ratio : 2.40:1
Frame rate mode : Constant
Frame rate : 23.976 (24000/1001) FPS
Color space : YUV
Chroma subsampling : 4:2:0
Bit depth : 8 bits
Scan type : Progressive
Bits/(Pixel*Frame) : 0.166
Stream size : 1.55 GiB (71%)
Title : potroks
Writing library : core 148 r2597M e86f3a1
Encoding settings : cabac=1 / ref=11 / deblock=1:-2:-2 / analyse=0x3:0x133 / me=umh / subme=11 / psy=1 / psy_rd=1.00:0.10 / mixed_ref=1 / me_range=48 / chroma_me=1 / trellis=2 / 8x8dct=1 / cqm=0 / deadzone=21,11 / fast_pskip=0 / chroma_qp_offset=-3 / threads=10 / lookahead_threads=2 / sliced_threads=0 / nr=0 / decimate=1 / interlaced=0 / bluray_compat=0 / constrained_intra=0 / bframes=12 / b_pyramid=2 / b_adapt=2 / b_bias=0 / direct=3 / weightb=1 / open_gop=0 / weightp=2 / keyint=250 / keyint_min=23 / scenecut=40 / intra_refresh=0 / rc=2pass / mbtree=0 / bitrate=2202 / ratetol=1.0 / qcomp=0.70 / qpmin=0 / qpmax=69 / qpstep=4 / cplxblur=20.0 / qblur=0.5 / ip_ratio=1.40 / pb_ratio=1.30 / aq=1:0.80
Language : English
Default : Yes
Forced : No

Audio #1
ID : 2
Format : AC-3
Format/Info : Audio Coding 3
Codec ID : A_AC3
Duration : 1 h 40 min
Bit rate mode : Constant
Bit rate : 448 kb/s
Channel(s) : 6 channels
Channel positions : Front: L C R, Side: L R, LFE
Sampling rate : 48.0 kHz
Frame rate : 31.250 FPS (1536 SPF)
Bit depth : 16 bits
Compression mode : Lossy
Stream size : 323 MiB (14%)
Title : [UA-DUB]
Language : Ukrainian
Service kind : Complete Main
Default : Yes
Forced : Yes

Audio #2
ID : 3
Format : AC-3
Format/Info : Audio Coding 3
Codec ID : A_AC3
Duration : 1 h 40 min
Bit rate mode : Constant
Bit rate : 448 kb/s
Channel(s) : 6 channels
Channel positions : Front: L C R, Side: L R, LFE
Sampling rate : 48.0 kHz
Frame rate : 31.250 FPS (1536 SPF)
Bit depth : 16 bits
Compression mode : Lossy
Stream size : 323 MiB (14%)
Title : Original | D 5.1 @ 448 kbps
Language : English
Service kind : Complete Main
Default : No
Forced : No

Text #1
ID : 4
Format : UTF-8
Codec ID : S_TEXT/UTF8
Codec ID/Info : UTF-8 Plain Text
Duration : 1 h 39 min
Bit rate : 75 b/s
Count of elements : 1241
Stream size : 54.9 KiB (0%)
Language : Ukrainian
Default : No
Forced : No

Text #2
ID : 5
Format : UTF-8
Codec ID : S_TEXT/UTF8
Codec ID/Info : UTF-8 Plain Text
Duration : 1 h 34 min
Bit rate : 52 b/s
Count of elements : 1364
Stream size : 36.6 KiB (0%)
Title : Full
Language : English
Default : No
Forced : No

Text #3
ID : 6
Format : UTF-8
Codec ID : S_TEXT/UTF8
Codec ID/Info : UTF-8 Plain Text
Duration : 1 h 35 min
Bit rate : 59 b/s
Count of elements : 1550
Stream size : 41.3 KiB (0%)
Title : SDH
Language : English
Default : No
Forced : No

Text #4
ID : 7
Format : UTF-8
Codec ID : S_TEXT/UTF8
Codec ID/Info : UTF-8 Plain Text
Duration : 1 h 35 min
Bit rate : 77 b/s
Count of elements : 1543
Stream size : 54.0 KiB (0%)
Title : SDH-Colored
Language : English
Default : No
Forced : No

Menu
00:00:00.000 : :(01)00:00:00:000
00:04:57.338 : :(02)00:04:57:338
00:09:55.927 : :(03)00:09:55:927
00:16:26.442 : :(04)00:16:26:442
00:20:31.730 : :(05)00:20:31:730
00:22:34.227 : :(06)00:22:34:227
00:26:31.006 : :(07)00:26:31:006
00:30:01.883 : :(08)00:30:01:883
00:35:06.353 : :(09)00:35:06:353
00:37:27.661 : :(10)00:37:27:661
00:41:41.623 : :(11)00:41:41:623
00:46:55.103 : :(12)00:46:55:103
00:49:56.617 : :(13)00:49:56:617
00:53:41.134 : :(14)00:53:41:134
01:00:08.478 : :(15)01:00:08:478
01:04:28.322 : :(16)01:04:28:322
01:06:42.498 : :(17)01:06:42:498
01:09:39.591 : :(18)01:09:39:591
01:12:37.350 : :(19)01:12:37:350
01:16:06.185 : :(20)01:16:06:185
01:19:36.563 : :(21)01:19:36:563
01:25:23.076 : :(22)01:25:23:076
01:29:56.555 : :(23)01:29:56:555
01:35:01.779 : :(24)01:35:01:779
Скріншоти





Джерело: &
Особиста оцінка: 8 - мені сподобалося


 Трекер:    Зареєстрований   

Завантажити / скачати фільм українською



відео для новачків



 Зареєстрований:   2018-05-28 17:15
 Розмір:   2.18 GB 
 Оцінка фільму:   7.8/10 (Голосів: 5)
   
bot 
робот


З нами з: 30.09.07
Востаннє: 26.05.05
Повідомлень: 21236

2018-05-28 17:14  
Тему перенесено з Анонси релізів до форуму Фільми


staf777

pi-men 
Частий відвідувач


З нами з: 05.07.12
Востаннє: 13.04.19
Повідомлень: 48

2018-06-02 19:43  
Дивитися можна. Але старий (оригінальний) фільм все-таки страшніший.
Ваш часовий пояс: GMT + 2 Години

Нова тема   Відповісти