Формула 1. Сезон 2018. Етап 6. Гран-Прі Монако. Гонка (27.05.2018) 720p Ukr/Eng

Нові коментарі

Нова тема   Відповісти
Останній раз роздавалося VicCob (2020-10-28)
Автор Повідомлення
sergiyko.5 
VIP


З нами з: 25.02.16
Востаннє: 28.10.20
Повідомлень: 3638

2018-05-28 08:15  
Формула 1. Сезон 2018. Етап 6. Гран-Прі Монако. Гонка (27.05.2018) 720p Ukr/Eng


Формула 1. Сезон 2018. Етап 6. Гран-Прі Монако. Гонка (27.05.2018) 720p Ukr/Eng

Жанр: Перегони Формули 1
Країна: Монте-Карло
Телеканал: Перший автомобільний, Channel 4
Коментатор: Максим Подзігун

Опис:
Гонка шостого етапу Гран-Прі Монако 2018 року.


Тривалість: 02:06:22
Якість:

Відео: кодек: розмір кадру: 1280 х 720 бітрейт: 3145 кб/с
Аудіо #1: мова: українська кодек: MP2 2.0 бітрейт: 192 кб/с
Аудіо #2: мова: англійська кодек: 2.0 бітрейт: 384 кб/с
Про файл:
General
Unique ID : 214534969164671397655811439105242748875 (0xA165EE9FA0FDCA6930B974DA8ED6D7CB)
Complete name : D:\Torrents\SPORT\Formula 1\F1.2018.Race\F1.2018.06.Monaco.Race.720p..Ukr.Eng.
Format :
Format version : Version 4 / Version 2
File size : 3.28 GiB
Duration : 2 h 6 min
Overall bit rate : 3 721 kb/s
Movie name : F1 2018 06 Monaco Race 720p by sergiyko
Encoded date : UTC 2018-05-28 06:25:02
Writing application : v23.0.0 ('The Bride Said No') 64-bit
Writing library : libebml v1.3.6 + v1.4.9

Video
ID : 1
Format : AVC
Format/Info : Advanced Video Codec
Format profile : [email protected]
Format settings, CABAC : Yes
Format settings, ReFrames : 5 frames
Codec ID : V_MPEG4/ISO/AVC
Duration : 2 h 6 min
Bit rate : 3 142 kb/s
Width : 1 280 pixels
Height : 720 pixels
Display aspect ratio : 16:9
Frame rate mode : Constant
Frame rate : 50.000 FPS
Color space : YUV
Chroma subsampling : 4:2:0
Bit depth : 8 bits
Scan type : Progressive
Bits/(Pixel*Frame) : 0.068
Stream size : 2.77 GiB (84%)
Title : F1 2018 06 Monaco Race
Writing library : core 155 r2901 7d0ff22
Encoding settings : cabac=1 / ref=5 / deblock=1:0:0 / analyse=0x3:0x113 / me=hex / subme=8 / psy=1 / psy_rd=1.00:0.00 / mixed_ref=1 / me_range=16 / chroma_me=1 / trellis=2 / 8x8dct=1 / cqm=0 / deadzone=21,11 / fast_pskip=1 / chroma_qp_offset=-2 / threads=12 / lookahead_threads=2 / sliced_threads=0 / nr=0 / decimate=1 / interlaced=0 / bluray_compat=0 / constrained_intra=0 / bframes=3 / b_pyramid=2 / b_adapt=1 / b_bias=0 / direct=3 / weightb=1 / open_gop=0 / weightp=2 / keyint=250 / keyint_min=25 / scenecut=40 / intra_refresh=0 / rc_lookahead=50 / rc=crf / mbtree=1 / crf=23.0 / qcomp=0.60 / qpmin=0 / qpmax=69 / qpstep=4 / ip_ratio=1.40 / aq=1:1.00
Language : English
Default : Yes
Forced : No
Color range : Limited
Matrix coefficients : BT.709

Audio #1
ID : 2
Format : MPEG Audio
Format version : Version 1
Format profile : Layer 2
Codec ID : A_MPEG/L2
Codec ID/Hint : MP2
Duration : 2 h 6 min
Bit rate mode : Constant
Bit rate : 192 kb/s
Channel(s) : 2 channels
Sampling rate : 48.0 kHz
Frame rate : 41.667 FPS (1152 spf)
Compression mode : Lossy
Stream size : 173 MiB (5%)
Title : 1 Авто | Максим Подзігун
Language : Ukrainian
Default : Yes
Forced : Yes

Audio #2
ID : 3
Format : AC-3
Format/Info : Audio Coding 3
Mode extension : CM (complete main)
Format settings, Endianness : Big
Codec ID : A_AC3
Duration : 2 h 6 min
Bit rate mode : Constant
Bit rate : 384 kb/s
Channel(s) : 2 channels
Channel positions : Front: L R
Sampling rate : 48.0 kHz
Frame rate : 31.250 FPS (1536 spf)
Bit depth : 16 bits
Compression mode : Lossy
Stream size : 347 MiB (10%)
Language : English
Default : No
Forced : No
Скріншоти:


Автор зведення: sergiyko


 Трекер:    Зареєстрований   

Завантажити / скачати торрент



відео для новачків



 Зареєстрований:   2018-05-28 08:28
 Розмір:   3.28 GB 
 Оцінка:   10/10 (Голосів: 14)
   
Alex_TerUA 
Новенький


З нами з: 24.10.14
Востаннє: 26.10.20
Повідомлень: 6

2018-05-28 08:20  
sergiyko.5 написано:

Гонка шостого сезону Гран-Прі Монако 2018 року.

Виправте, будь-ласка, опис - шоста гонка, а не сезон.

VicCob 
Свій


З нами з: 16.06.10
Востаннє: 25.10.20
Повідомлень: 58

2018-05-28 08:30  
Дякую!
Прикро що не вчора виставили

sergiyko.5 
VIP


З нами з: 25.02.16
Востаннє: 28.10.20
Повідомлень: 3638

2018-05-28 16:33  
VicCob написано:
Прикро що не вчора виставили

Крім того що гонки зводити, мені ще треба й гроші заробляти.

Kapters 
Новенький


З нами з: 08.12.13
Востаннє: 27.10.20
Повідомлень: 24

2018-05-28 20:54  
Величезна дяка пану sergiyko.5 за пророблену роботу.
Завдяки Вам маю хоч таку можливість бачити Формулу 1 у виконання улюбленого коментатора.

Ваш часовий пояс: GMT + 2 Години

Нова тема   Відповісти