Чого хочуть жінки / What Women Want (2000) 1080p 5xUkr/Eng | Sub Ukr/Eng

Нові коментарі

Нова тема   Відповісти
Автор Повідомлення
staf777 
Відео Гуртом - підтримка та поширення
Відео Гуртом - підтримка та поширення


З нами з: 16.11.16
Востаннє: 24.01.20
Повідомлень: 3357

2018-05-27 18:55  
Чого хочуть жінки / What Women Want (2000) 1080p 5xUkr/Eng | Sub Ukr/Eng

Чого хочуть жінки / What Women Want (2000) 1080p 5xUkr/Eng | Sub Ukr/Eng


Жанр: комедія, мелодрама, фантастика
Країна: США



Кінокомпанія: Paramount Pictures, Icon Entertainment International
Режисер: Ненсі Мейерс
Актори: Мел Ґібсон, Гелен Гант, Маріса Томей, Алан Алда, Ешлі Джонсон, Марк Фюрштейн, Лоурен Голлі, Дельта Бурк, Валері Перрін, Джуді Ґрір

Сюжет:
Співробітник рекламного агентства Нік Маршалл очікує на підвищення по службі, але в останню мить начальство змінює плани. Агентство втрачає позиції на ринку реклами і замість Ніка призначають Дарсі МакГвайер, яка в змозі перебороти нехорошу тенденцію. Невдоволений Нік не проти довести, що і він би чудово зі всім упорався, і така можливість у нього з’являється. Електричний розряд, що потрапив у героя фільму, наділяє його унікальною здатністю: відтепер він чує все, про що думають жінки. Завдяки такому подарунку долі, Нік тепер може не тільки створювати рекламу, близьку і зрозумілу кожній жінці, але і з легкістю знайти підхід до неприступної продавщиці з кафе, а також налагодити врешті-решт контакт зі своєю 15-річною донькою.


Тривалість: 02:06:39
Якість: 1080p
Відео:
кодек:
розмір кадру: 1920x1080
бітрейт: 8090 кб/с

Аудіо # 1: ,
мова: українська
переклад: двоголосий закадровий
кодек: 2.0
бітрейт: 192 кб/с

Аудіо # 2:
мова: українська
переклад: двоголосий закадровий
кодек: 2.0
бітрейт: 192 кб/с

Аудіо # 3:
мова: українська
переклад: багатоголосий закадровий
кодек: 2.0
бітрейт: 192 кб/с

Аудіо # 4:
мова: українська
переклад: багатоголосий закадровий
кодек: 2.0
бітрейт: 192 кб/с

Аудіо # 5:
мова: українська
переклад: багатоголосий закадровий
кодек: 2.0
бітрейт: 192 кб/с

Аудіо # 6:
мова: англійська
переклад: оригінал
кодек: 5.1
бітрейт: 1510 кб/с

Субтитри:
мова: українська
тип: програмні (м'які)
формат: *.srt

Субтитри:
мова: англійська
тип: програмні (м'які)
формат: *.srt
Info
General
Unique ID : 264152968105319705835247864163243938054 (0xC6BA02D89502BC8A9DEFBA5283805106)
Complete name : H:\» HD українською » Фільми в HD\Комедія\What Women Want (2000) 1080p [5xUKR] [ENG] [Hurtom].
Format :
Format version : Version 4 / Version 2
File size : 9.34 GiB
Duration : 2 h 6 min
Overall bit rate : 10.6 Mb/s
Movie name : What Women Want (2000) 1080p [5xUKR] [ENG] [Hurtom]
Encoded date : UTC 2018-12-04 11:31:48
Writing application : v24.0.0 ('Beyond The Pale') 64-bit
Writing library : libebml v1.3.6 + v1.4.9
Cover : Yes
Attachments : cover.jpg

Video
ID : 1
Format : AVC
Format/Info : Advanced Video Codec
Format profile : [email protected]
Format settings : CABAC / 4 Ref Frames
Format settings, CABAC : Yes
Format settings, ReFrames : 4 frames
Codec ID : V_MPEG4/ISO/AVC
Duration : 2 h 6 min
Bit rate : 8 090 kb/s
Width : 1 920 pixels
Height : 1 080 pixels
Display aspect ratio : 16:9
Frame rate mode : Constant
Frame rate : 23.976 (24000/1001) FPS
Color space : YUV
Chroma subsampling : 4:2:0
Bit depth : 8 bits
Scan type : Progressive
Bits/(Pixel*Frame) : 0.163
Stream size : 7.15 GiB (77%)
Writing library : core 135 r2345kMod f0c1c53
Encoding settings : cabac=1 / ref=4 / deblock=1:-2:-2 / analyse=0x3:0x113 / me=umh / subme=10 / psy=1 / fade_compensate=0.00 / psy_rd=1.00:0.15 / mixed_ref=1 / me_range=48 / chroma_me=1 / trellis=2 / 8x8dct=1 / cqm=0 / deadzone=21,11 / fast_pskip=0 / chroma_qp_offset=-3 / threads=6 / lookahead_threads=1 / sliced_threads=0 / nr=0 / decimate=1 / interlaced=0 / bluray_compat=0 / constrained_intra=0 / bframes=8 / b_pyramid=2 / b_adapt=2 / b_bias=0 / direct=3 / weightb=1 / open_gop=0 / weightp=2 / keyint=250 / keyint_min=23 / scenecut=40 / intra_refresh=0 / rc_lookahead=40 / rc=2pass / mbtree=0 / bitrate=8090 / ratetol=1.0 / qcomp=0.75 / qpmin=0 / qpmax=69 / qpstep=4 / cplxblur=20.0 / qblur=0.5 / vbv_maxrate=50000 / vbv_bufsize=62500 / nal_hrd=none / ip_ratio=1.40 / pb_ratio=1.30 / aq=1:0.80
Language : English
Default : Yes
Forced : No
Color range : Limited
Matrix coefficients : BT.709

Audio #1
ID : 2
Format : AC-3
Format/Info : Audio Coding 3
Codec ID : A_AC3
Duration : 2 h 6 min
Bit rate mode : Constant
Bit rate : 192 kb/s
Channel(s) : 2 channels
Channel positions : Front: L R
Sampling rate : 48.0 kHz
Frame rate : 31.250 FPS (1536 SPF)
Bit depth : 16 bits
Compression mode : Lossy
Stream size : 174 MiB (2%)
Title : [UA-DVO-1+1]
Language : Ukrainian
Service kind : Complete Main
Default : Yes
Forced : Yes

Audio #2
ID : 3
Format : AC-3
Format/Info : Audio Coding 3
Codec ID : A_AC3
Duration : 2 h 6 min
Bit rate mode : Constant
Bit rate : 192 kb/s
Channel(s) : 2 channels
Channel positions : Front: L R
Sampling rate : 48.0 kHz
Frame rate : 31.250 FPS (1536 SPF)
Bit depth : 16 bits
Compression mode : Lossy
Stream size : 174 MiB (2%)
Title : [UA-DVO-NEW CANAL]
Language : Ukrainian
Service kind : Complete Main
Default : No
Forced : No

Audio #3
ID : 4
Format : AC-3
Format/Info : Audio Coding 3
Codec ID : A_AC3
Duration : 2 h 6 min
Bit rate mode : Constant
Bit rate : 192 kb/s
Channel(s) : 2 channels
Channel positions : Front: L R
Sampling rate : 48.0 kHz
Frame rate : 31.250 FPS (1536 SPF)
Bit depth : 16 bits
Compression mode : Lossy
Stream size : 174 MiB (2%)
Title : [UA-MVO-CINE+]
Language : Ukrainian
Service kind : Complete Main
Default : No
Forced : No

Audio #4
ID : 5
Format : AC-3
Format/Info : Audio Coding 3
Codec ID : A_AC3
Duration : 2 h 6 min
Bit rate mode : Constant
Bit rate : 192 kb/s
Channel(s) : 2 channels
Channel positions : Front: L R
Sampling rate : 48.0 kHz
Frame rate : 31.250 FPS (1536 SPF)
Bit depth : 16 bits
Compression mode : Lossy
Stream size : 174 MiB (2%)
Title : [UA-MVO-UKRAINE]
Language : Ukrainian
Service kind : Complete Main
Default : No
Forced : No

Audio #5
ID : 6
Format : AC-3
Format/Info : Audio Coding 3
Codec ID : A_AC3
Duration : 2 h 6 min
Bit rate mode : Constant
Bit rate : 192 kb/s
Channel(s) : 2 channels
Channel positions : Front: L R
Sampling rate : 48.0 kHz
Frame rate : 31.250 FPS (1536 SPF)
Bit depth : 16 bits
Compression mode : Lossy
Stream size : 174 MiB (2%)
Title : [UA-MVO-ICTV]
Language : Ukrainian
Service kind : Complete Main
Default : No
Forced : No

Audio #6
ID : 7
Format :
Format/Info : Digital Theater Systems
Codec ID : A_DTS
Duration : 2 h 6 min
Bit rate mode : Constant
Bit rate : 1 510 kb/s
Channel(s) : 6 channels
Channel positions : Front: L C R, Side: L R, LFE
Sampling rate : 48.0 kHz
Frame rate : 93.750 FPS (512 SPF)
Bit depth : 16 bits
Compression mode : Lossy
Stream size : 1.34 GiB (14%)
Title : [Original- 5.1]
Language : English
Default : No
Forced : No

Text #1
ID : 8
Format : UTF-8
Codec ID : S_TEXT/UTF8
Codec ID/Info : UTF-8 Plain Text
Duration : 2 h 1 min
Bit rate : 117 b/s
Count of elements : 1799
Stream size : 105 KiB (0%)
Title : Ukr
Language : Ukrainian
Default : No
Forced : No

Text #2
ID : 9
Format : UTF-8
Codec ID : S_TEXT/UTF8
Codec ID/Info : UTF-8 Plain Text
Duration : 2 h 1 min
Bit rate : 83 b/s
Count of elements : 1877
Stream size : 74.2 KiB (0%)
Title : Eng
Language : English
Default : No
Forced : No
Скріншоти




За запис з ТЕТ дякую пану slavik_v_z синхронізація Arsenfpu
За запис з Нового дякую п. slavik_v_z, Bohdan237 синхронізація Arsenfpu
За запис з Cine дякую пану Sando7 синхронізація Arsenfpu
За доріжки від ICTV та України дякую п. _oles, Merdiff, MAKAPOHHIK, Karvai
За постер дякую п. hellforces, fazza
За субтитри дякую пану Віктор



Джерело: &
Особиста оцінка: 0 - не дивився
ЗАЛИШАЙТЕСЬ ЯКОМОГА ДОВШЕ НА РОЗДАЧІ!

СКАЧАВ САМ - ДАЙ СКАЧАТИ ІНШИМ



Срібний реліз (на рейтинг впливає 50% завантаженого)
 Трекер:    Зареєстрований   

Завантажити / скачати фільм українською



відео для новачків



 Зареєстрований:   2018-12-04 15:04
 Розмір:   9.34 GB 
 Оцінка фільму:   8.3/10 (Голосів: 21)
   
igor911 
Модератор відео


З нами з: 18.01.08
Востаннє: 24.01.20
Повідомлень: 13972

2018-05-28 07:46  
staf777 написано:
Аудіо # 6:
мова: англійська
переклад: оригінал
кодек: 2.0
бітрейт: 192 кб/с

Невже важко було додати оригінал в 5.1? До того ж тут є українські субтитри - тож знайдуться бажаючі переглянути в оригіналі з сабами...

staf777 
Відео Гуртом - підтримка та поширення
Відео Гуртом - підтримка та поширення


З нами з: 16.11.16
Востаннє: 24.01.20
Повідомлень: 3357

2018-12-04 15:04  
Замінив оригінальну доріжку на 5.1
kryk-v.ya. 
VIP


З нами з: 14.02.14
Востаннє: 24.01.20
Повідомлень: 1761

2018-12-05 20:01  
П'ять доріжок...це капець...пане автор-"знімаю капелюха."
XipypriR 
Новенький


З нами з: 21.11.14
Востаннє: 19.01.20
Повідомлень: 3

2018-12-07 18:07  
Просто офігенний фильм! Є на DVD з рос. перекладом, але вже не має на чому дивитися. Дякую Wink (2)
Ваш часовий пояс: GMT + 2 Години

Нова тема   Відповісти