Інший світ 4: Пробудження / Underworld: Awakening (2012) Remux 1080p Ukr/Eng | Sub Eng

Нові коментарі

Нова тема   Відповісти
Автор Повідомлення
staf777 
Відео Гуртом - підтримка та поширення
Відео Гуртом - підтримка та поширення


З нами з: 16.11.16
Востаннє: 22.09.20
Повідомлень: 4027

2018-05-27 18:56  
Інший світ 4: Пробудження / Underworld: Awakening (2012) Remux 1080p Ukr/Eng | Sub Eng

Інший світ 4: Пробудження / Underworld: Awakening (2012) Remux 1080p Ukr/Eng | Sub Eng


Жанр: жахи, фентезі, бойовик
Країна: США



Кінокомпанія: Lakeshore Entertainment
Режисер: Монс Морлінд, Бьерн Стейн
Актори: Кейт Бекінсейл, Стівен Рі, Майкл Або, Тео Джеймс, Індія Айлі, Чарльз Денс, Крістен Холден-Рід, Сандрін Холт, Річард Цетрон, Сенні Ван Хетерен

Сюжет:
Через 12 років в стані, близькому до коматозного, Селін дізнається про існування рідної дочки Єви - гібрида вампіра і лікана. І Селін необхідно перешкодити Біоком створити суперліканів, які вб'ють їх усіх.


Тривалість: 01:28:34
Якість: Remux 1080p
Відео:
кодек:
розмір кадру: 1920x1080
бітрейт: 23 Мб/с

Аудіо # 1:
мова: українська
переклад: професійний дубльований
кодек: 5.1
бітрейт: 640 кб/с

Аудіо # 2:
мова: англійська
переклад: оригінал
кодек: HD MA 5.1
бітрейт: 2422 кб/с

Джерело озвучення:


Субтитри:
мова: англійська
тип: пререндерні
формат: *.pgs
Info
General
Unique ID : 171338948396476768491386238533149662094 (0x80E6AE5EE8154093873DD07B6FC01B8E)
Complete name : H:\Майбутні релізи\Underworld Awakening (2012) Remux 1080p [Ukr][Eng][Sub Eng][Hurtom].
Format :
Format version : Version 4 / Version 2
File size : 16.1 GiB
Duration : 1 h 28 min
Overall bit rate mode : Variable
Overall bit rate : 26.1 Mb/s
Movie name : Underworld: Awakening (2012) Remux 1080p [Ukr][Eng][Sub Eng][Hurtom]
Encoded date : UTC 2018-05-28 15:58:28
Writing application : v9.8.0 ('Kuglblids') 64bit
Writing library : libebml v1.3.4 + v1.4.5
Cover : Yes
Attachments : cover.jpg

Video
ID : 1
Format : AVC
Format/Info : Advanced Video Codec
Format profile : [email protected]
Format settings : CABAC / 2 Ref Frames
Format settings, CABAC : Yes
Format settings, ReFrames : 2 frames
Codec ID : V_MPEG4/ISO/AVC
Duration : 1 h 28 min
Bit rate mode : Variable
Bit rate : 23.0 Mb/s
Width : 1 920 pixels
Height : 1 080 pixels
Display aspect ratio : 16:9
Frame rate mode : Constant
Frame rate : 23.976 (24000/1001) FPS
Color space : YUV
Chroma subsampling : 4:2:0
Bit depth : 8 bits
Scan type : Progressive
Bits/(Pixel*Frame) : 0.462
Stream size : 14.2 GiB (88%)
Language : English
Default : Yes
Forced : Yes

Audio #1
ID : 2
Format : AC-3
Format/Info : Audio Coding 3
Codec ID : A_AC3
Duration : 1 h 28 min
Bit rate mode : Constant
Bit rate : 640 kb/s
Channel(s) : 6 channels
Channel positions : Front: L C R, Side: L R, LFE
Sampling rate : 48.0 kHz
Frame rate : 31.250 FPS (1536 SPF)
Bit depth : 16 bits
Compression mode : Lossy
Stream size : 405 MiB (2%)
Language : Ukrainian
Service kind : Complete Main
Default : Yes
Forced : Yes

Audio #2
ID : 3
Format :
Format/Info : Digital Theater Systems
Format profile : MA / Core
Codec ID : A_DTS
Duration : 1 h 28 min
Bit rate mode : Variable / Constant
Bit rate : 2 422 kb/s / 1 509 kb/s
Channel(s) : 6 channels
Channel positions : Front: L C R, Side: L R, LFE
Sampling rate : 48.0 kHz
Frame rate : 93.750 FPS (512 SPF)
Bit depth : 16 bits
Compression mode : Lossless / Lossy
Stream size : 1.50 GiB (9%)
Language : English
Default : No
Forced : No

Text
ID : 4
Format : PGS
Muxing mode : zlib
Codec ID : S_HDMV/PGS
Codec ID/Info : Picture based subtitle format used on BDs/HD-DVDs
Duration : 1 h 17 min
Bit rate : 12.1 kb/s
Count of elements : 1466
Stream size : 6.73 MiB (0%)
Language : English
Default : No
Forced : No

Menu
00:00:00.000 : en:
00:04:26.057 : en:
00:07:45.338 : en:
00:16:20.186 : en:
00:21:11.811 : en:
00:24:49.987 : en:
00:30:29.827 : en:
00:35:31.754 : en:
00:40:04.944 : en:
00:45:23.929 : en:
00:52:30.730 : en:
00:57:21.563 : en:
01:02:53.936 : en:
01:07:43.726 : en:
01:12:18.500 : en:
01:16:41.430 : en:
Скріншоти






Джерело: &


Золотий реліз (завантажене не впливає на рейтинг)
 Трекер:    Зареєстрований   

Завантажити / скачати фільм українською



відео для новачків



 Зареєстрований:   2018-05-28 19:40
 Розмір:   16.12 GB 
 Оцінка фільму:   7.6/10 (Голосів: 10)
   
bot 
робот


З нами з: 30.09.07
Востаннє: 26.05.05
Повідомлень: 25566

2018-05-27 18:56  
Тему перенесено з Фільми в HD до форуму Анонси релізів


staf777

don pedro 
Попереджень: 1
Попереджень: 1 


З нами з: 29.06.11
Востаннє: 22.09.20
Повідомлень: 17732

2018-05-27 21:17  
Хороший фільм, тільки дуже короткий.
bot 
робот


З нами з: 30.09.07
Востаннє: 26.05.05
Повідомлень: 25566

2018-05-28 19:40  
Тему перенесено з Анонси релізів до форуму Фільми в HD


staf777

kryk-v.ya. 
Попереджень: 1
Попереджень: 1 


З нами з: 14.02.14
Востаннє: 22.09.20
Повідомлень: 2240

2018-06-03 16:31  
Пристойне кіно.
саме головне,є бажання його ще раз глянути.

Ваш часовий пояс: GMT + 2 Години

Нова тема   Відповісти