Земля (1954)

Нові коментарі

Нова тема   Відповісти
Автор Повідомлення
Anonymous 







2018-05-27 16:33  
Земля (1954)



Жанр: драма
Країна: Україна



Кінокомпанія: Київська кіностудія художніх фільмів
Режисер: А. Бучма, О. Швачко
Актори: Н. Ужвій, В. Сокирко, С. Фещенко, П. Грубник, Т. Алексеєва, В. Безпольотова, Є. Кисельова, П. Міхневич, О. Карпенко, Н. Наум

Сюжет:
Кінець XIX століття. Село Димка на Буковині. У родині заможного селянина Івоніки Федорчука двоє синів. Старший з них, працьовитий Михайло, справжня опора батька в господарстві. Молодший, Сава, - юнак з «дитячим обличчям» і жорстокими очима злого чоловіка. Михайло давно вже любить бідну наймичку Анну, але змушений приховувати своє почуття від батьків: ще невідомо, як вони подивляться на нерівний шлюб. Сава все більш піддається дивним чарам ворожки Рахіри, що користується поганою славою у односельчан. Вона розпалює в Саві неприязнь до старшого брата - адже йому повинна дістатися краща земля...


Тривалість: 01:17:49
Якість: (запис з телеканалу ZIK HD)
Відео:
кодек:
розмір кадру: 720 х 544
бітрейт: 2313 кб/с

Аудіо:
мова: українська
переклад: оригінал
кодек: 2.0
бітрейт: 192 кб/с
Info
General
Complete name : Земля (1954) [Hurtom].avi
Format : AVI
Format/Info : Audio Video Interleave
File size : 1.37 GiB
Duration : 1 h 17 min
Overall bit rate : 2 515 kb/s
Writing application : VirtualDubMod 1.5.10.2 (build 2540/release)
Writing library : VirtualDubMod build 2540/release

Video
ID : 0
Format : MPEG-4 Visual
Format profile : Advanced [email protected]
Format settings : BVOP1
Format settings, BVOP : 1
Format settings, QPel : No
Format settings, GMC : No warppoints
Format settings, Matrix : Default (MPEG)
Codec ID :
Codec ID/Hint :
Duration : 1 h 17 min
Bit rate : 2 313 kb/s
Width : 720 pixels
Height : 544 pixels
Display aspect ratio : 4:3
Frame rate : 25.000 FPS
Color space : YUV
Chroma subsampling : 4:2:0
Bit depth : 8 bits
Scan type : Progressive
Compression mode : Lossy
Bits/(Pixel*Frame) : 0.236
Stream size : 1.26 GiB (92%)
Writing library : 1.2.1 (UTC 2008-12-04)

Audio
ID : 1
Format : AC-3
Format/Info : Audio Coding 3
Codec ID : 2000
Duration : 1 h 17 min
Bit rate mode : Constant
Bit rate : 192 kb/s
Channel(s) : 2 channels
Channel positions : Front: L R
Sampling rate : 48.0 kHz
Frame rate : 31.250 FPS (1536 SPF)
Bit depth : 16 bits
Compression mode : Lossy
Stream size : 107 MiB (8%)
Alignment : Split accross interleaves
Interleave, duration : 40 ms (1.00 video frame)
Interleave, preload duration : 500 ms
Service kind : Complete Main
Скріншоти







Джерело:


Золотий реліз (завантажене не впливає на рейтинг)
 Трекер:    Зареєстрований   

Завантажити / скачати український фільм



відео для новачків



 Зареєстрований:   2018-07-08 18:46
 Розмір:   1.37 GB 
 Оцінка фільму:   9.8/10 (Голосів: 26)
   
Anonymous 







2018-05-27 19:58  
додав рейтинг imdb Wink (2)
krigg070 
Відео Гуртом - фільмокрай
Відео Гуртом - фільмокрай


З нами з: 29.10.14
Востаннє: 01.03.21
Повідомлень: 1974

2018-05-29 21:49  
Anonymous написано:
запис з телеканалу Телевсесвіт

Телевсесвіт мовить у Full HD. Мабуть варто записувати звідти.

Anonymous 







2018-05-29 22:51  
krigg070 написано:
Телевсесвіт мовить у Full HD.

Це і є запис звідти, ось оригінал
тиць
krigg070 написано:
Мабуть варто записувати звідти

можливо сат чи т2, бо це з архіву

Anonymous 







2018-07-08 18:48  
Оновив торент.
Тепер кращої якості - без логотипу телеканалу і рухомих рядків

def2145 
Новенький


З нами з: 06.02.20
Востаннє: 28.02.21
Повідомлень: 1

2020-04-09 08:25  
Дякую!
Ваш часовий пояс: GMT + 2 Години

Нова тема   Відповісти