Бібліотекарі (Сезон 4) / The Librarians (Season 4) (2017) Remux 1080p Ukr/Eng

Нові коментарі

Нова тема   Відповісти
Автор Повідомлення
Anonymous 







2018-05-27 15:29  
Бібліотекарі (Сезон 4) / The Librarians (Season 4) (2017) Remux 1080p Ukr/Eng

Бібліотекарі (Сезон 4) / The Librarians (Season 4) (2017) Remux 1080p Ukr/Eng


Жанр: пригодницький, фантастика
Країна: США



Кінокомпанія: Electric Entertainment, TNT
Режисер: Дін Девлін (Dean Devlin)
Актори: Ноа Вайл (Noah Wyle), Крістіан Кейн (Christian Kane), Ребека Ромін (Rebecca Romijn), Джон Кім (John Kim), Лінді Бут (Lindy Booth) та інші

Сюжет:
«Бібліотекарі» – це продовження мегапопулярної однойменної повнометражної трилогії. Творці серіалу взяли з неї все найкраще, додали трохи пригод у стилі «Індіани Джонса», розслідувань Шерлока Холмса, жахів і містики з містечка «Сонна лощина». А, крім того, звернулися до теми магічних артефактів.

Сюжет закручений навколо могутньої і таємничої організації, яка розташовується під будівлею нічим не примітної нью-йоркської публічної бібліотеки. Мета її – збирати по всьому світу потужні артефакти, що увібрали в себе старовинну магію, і стежити, щоб вони не потрапили до поганих рук.

Ви знову зустрінетесь із хранителем магічної бібліотеки Флінном Карсоном. Головному Бібліотекарю складно й нудно працювати на самоті. І він набирає веселу й безстрашну команду відчайдухів, які стають його наступниками…

Тривалість: 1 серія: ~42 хв. (цілком серій: 12)
Перелік серій
01) And the Dark Secret
02) And the Steal of Fortune
03) And the Christmas Thief
04) And the Silver Screen
05) And the Bleeding Crown
06) And the Graves of Time
07) And the Disenchanted Forest
08) And the Hidden Sanctuary
09) And a Town Called Feud
10) And Some Dude Named Jeff
11) And the Trial of the One
12) And the Echoes of Memory
Якість: Remux
Відео:
кодек:
розмір кадру: 1920 х 1080
бітрейт: ~15 мб/с

Аудіо # 1:
мова: українська
переклад: багатоголосий закадровий
кодек: 2.0
бітрейт: 192 кб/с
першоджерело звуку: https://toloka.to/t90221

Аудіо # 2:
мова: англійська
переклад: оригінал
кодек: -HD 5.1
бітрейт: 3509 кб/с

Джерело озвучення:


Субтитри:
мова: англійська
тип: пререндерні
формат: *.pgs
примітка: лише на місця з не-англійською мовою
Info
General
Unique ID : 157313631119669496462159036297704652426 (0x765980D72DBD403F3DD7D7FE508C3E8A)
Complete name : E:\Support\The Librarians (Season 4) [Remux, 1080p, Ukr, Eng]\The Librarians. S04E01. And the Dark Secret.
Format :
Format version : Version 4 / Version 2
File size : 5.66 GiB
Duration : 42 min 25 s
Overall bit rate mode : Variable
Overall bit rate : 19.1 Mb/s
Encoded date : UTC 2018-05-27 09:15:10
Writing application : v23.0.0 ('The Bride Said No') 64-bit
Writing library : libebml v1.3.6 + v1.4.9

Video
ID : 1
Format : AVC
Format/Info : Advanced Video Codec
Format profile : [email protected]
Format settings : CABAC / 4 Ref Frames
Format settings, CABAC : Yes
Format settings, ReFrames : 4 frames
Codec ID : V_MPEG4/ISO/AVC
Duration : 42 min 25 s
Bit rate mode : Variable
Bit rate : 15.4 Mb/s
Maximum bit rate : 33.0 Mb/s
Width : 1 920 pixels
Height : 1 080 pixels
Display aspect ratio : 16:9
Frame rate mode : Constant
Frame rate : 23.976 (24000/1001) FPS
Color space : YUV
Chroma subsampling : 4:2:0
Bit depth : 8 bits
Scan type : Progressive
Bits/(Pixel*Frame) : 0.310
Stream size : 4.57 GiB (81%)
Language : English
Default : Yes
Forced : No

Audio #1
ID : 2
Format : AC-3
Format/Info : Audio Coding 3
Codec ID : A_AC3
Duration : 42 min 25 s
Bit rate mode : Constant
Bit rate : 192 kb/s
Channel(s) : 2 channels
Channel positions : Front: L R
Sampling rate : 48.0 kHz
Frame rate : 31.250 FPS (1536 SPF)
Bit depth : 16 bits
Compression mode : Lossy
Stream size : 58.3 MiB (1%)
Title : Новий
Language : Ukrainian
Service kind : Complete Main
Default : Yes
Forced : No

Audio #2
ID : 3
Format :
Format/Info : Digital Theater Systems
Format profile : MA / Core
Codec ID : A_DTS
Duration : 42 min 25 s
Bit rate mode : Variable / Constant
Bit rate : 3 509 kb/s / 1 509 kb/s
Channel(s) : 6 channels
Channel positions : Front: L C R, Side: L R, LFE
Sampling rate : 48.0 kHz
Frame rate : 93.750 FPS (512 SPF)
Bit depth : 24 bits
Compression mode : Lossless / Lossy
Stream size : 1.04 GiB (18%)
Language : English
Default : No
Forced : No

Text
ID : 4
Format : PGS
Muxing mode : zlib
Codec ID : S_HDMV/PGS
Codec ID/Info : Picture based subtitle format used on BDs/HD-DVDs
Duration : 5 min 0 s
Bit rate : 3 007 b/s
Count of elements : 18
Stream size : 110 KiB (0%)
Language : English
Default : No
Forced : No
Скріншоти
Джерело:
Особиста оцінка: 9 - легка й весела фантастика





Золотий реліз (завантажене не впливає на рейтинг)
 Трекер:    Зареєстрований   

Завантажити / скачати серіал українською



відео для новачків



 Зареєстрований:   2018-05-27 15:29
 Розмір:   66.86 GB 
 Оцінка серіалу:   10/10 (Голосів: 4)
   
Ваш часовий пояс: GMT + 2 Години

Нова тема   Відповісти