Тверда цукерка / Hard Candy (2005) 1080p Ukr/Eng | Sub Eng

Нові коментарі

Нова тема   Відповісти
Останній раз роздавалося dimic (2021-01-27)
Автор Повідомлення
boroznaya 
Попереджень: 1
Попереджень: 1 


З нами з: 02.11.12
Востаннє: 25.01.21
Повідомлень: 2934

2018-05-27 11:20  
Тверда цукерка / Hard Candy (2005) 1080p Ukr/Eng | Sub Eng

Тверда цукерка / Hard Candy (2005) 1080p Ukr/Eng | Sub Eng


Жанр: трилер, драма
Країна: США



Кінокомпанія: Vulcan Productions
Режисер: Девід Слейд
Актори: Патрік Вілсон, Еллен Пейдж, Сандра О, Одесса Рей, Ґілберт Джон

Сюжет:
14-річна «Лоліта» знайомиться в інтернеті з 32-річним успішним фотографом Джефом Коулером. Він запрошує її до себе додому.
Підозрюючи, що Джеф є педофілом, і, прагнучи викрити його, вона відповідає згодою ...


Тривалість: 01:39:52
Якість: 1080p
Відео:
кодек:
розмір кадру: 1920x824
бітрейт: 10.2 Mб/с

Аудіо # 1:
мова: українська
переклад: багатоголосий закадровий
кодек: 5.1
бітрейт: 448 кб/с

Аудіо # 2:
мова: англійська
переклад: оригінал
кодек: 5.1
бітрейт: 1510 кб/с

Субтитри:
мова: англійська
тип: програмні (м'які)
формат: *.srt
Info
D:\Фільми\Готові релізи\Hard Candy (2005) [Ukr, Eng, sub. Eng] 1080p [Hurtom] by Zhuk_Mikola.
General
Unique ID : 27321592200748170035770324208535386806 (0x148DF27F49FAE50EC54D2F94B08EBAB6)
Complete name : D:\Фільми\Готові релізи\Hard Candy (2005) [Ukr, Eng, sub. Eng] 1080p [Hurtom] by Zhuk_Mikola.
Format :
Format version : Version 4 / Version 2
File size : 8.64 GiB
Duration : 1h 39mn
Overall bit rate : 12.4 Mbps
Encoded date : UTC 2018-06-10 06:56:16
Writing application : v20.0.0 ('I Am The Sun') 64-bit
Writing library : libebml v1.3.5 + v1.4.8
DURATION : 01:39:52.864000000
NUMBER_OF_FRAMES : 187277
NUMBER_OF_BYTES : 335600384
_STATISTICS_WRITING_APP : v20.0.0 ('I Am The Sun') 64-bit
_STATISTICS_WRITING_DATE_UTC : 2018-06-10 06:56:16
_STATISTICS_TAGS : BPS DURATION NUMBER_OF_FRAMES NUMBER_OF_BYTES

Video #1
ID : 1
Format : AVC
Format/Info : Advanced Video Codec
Format profile : [email protected]
Format settings, CABAC : Yes
Format settings, ReFrames : 5 frames
Codec ID : V_MPEG4/ISO/AVC
Duration : 1h 39mn
Bit rate : 10.2 Mbps
Nominal bit rate : 10.7 Mbps
Width : 1 920 pixels
Height : 824 pixels
Display aspect ratio : 2.35:1
Frame rate : 25.000 fps
Color space : YUV
Chroma subsampling : 4:2:0
Bit depth : 8 bits
Scan type : Progressive
Bits/(Pixel*Frame) : 0.257
Stream size : 7.10 GiB (82%)
Writing library : core 79 r1342kMod e8501ef
Encoding settings : cabac=1 / ref=5 / deblock=1:-3:-3 / analyse=0x3:0x133 / me=umh / subme=10 / psy=1 / psy_rd=1.0:0.1 / mixed_ref=1 / me_range=32 / chroma_me=1 / trellis=2 / 8x8dct=1 / cqm=0 / deadzone=21,11 / chroma_qp_offset=-3 / threads=6 / nr=0 / decimate=1 / mbaff=0 / constrained_intra=0 / bframes=7 / b_pyramid=0 / b_adapt=2 / b_bias=0 / direct=1 / wpredb=1 / wpredp=2 / keyint=250 / keyint_min=25 / scenecut=40 / rc_lookahead=50 / rc=abr / mbtree=1 / bitrate=10700 / ratetol=1.0 / qcomp=0.60 / qpmin=10 / qpmax=51 / qpstep=4 / ip_ratio=1.40 / aq=1:1.00
Language : English
Default : Yes
Forced : No

Audio #2
ID : 2
Format : AC-3
Format/Info : Audio Coding 3
Mode extension : CM (complete main)
Codec ID : A_AC3
Duration : 1h 39mn
Bit rate mode : Constant
Bit rate : 448 Kbps
Channel(s) : 6 channels
Channel positions : Front: L C R, Side: L R, LFE
Sampling rate : 48.0 KHz
Bit depth : 16 bits
Compression mode : Lossy
Stream size : 320 MiB (4%)
Title : Багатоголосий закадровий, ICTV
Language : Ukrainian
Default : Yes
Forced : No

Audio #3
ID : 3
Format :
Format/Info : Digital Theater Systems
Codec ID : A_DTS
Duration : 1h 39mn
Bit rate mode : Constant
Bit rate : 1 510 Kbps
Channel(s) : 6 channels
Channel positions : Front: L C R, Side: L R, LFE
Sampling rate : 48.0 KHz
Bit depth : 16 bits
Compression mode : Lossy
Stream size : 1.05 GiB (12%)
Language : English
Default : No
Forced : No

Text #4
ID : 4
Format : UTF-8
Codec ID : S_TEXT/UTF8
Codec ID/Info : UTF-8 Plain Text
Language : English
Default : No
Forced : No
Скріншоти




Подяка:
* Merdiff за надану сиру доріжку;
* robotron005 за синхронізацію української доріжки;
* bilenkuyboy за українізований постер.

Джерело: &
Особиста оцінка: 8 - мені сподобалося

Не забуваємо тиснути "Дякую!"


 Трекер:    Зареєстрований   

Завантажити / скачати фільм українською



відео для новачків



 Зареєстрований:   2018-06-10 11:27
 Розмір:   8.64 GB 
 Оцінка фільму:   9.1/10 (Голосів: 10)
   
Інші релізи
   Тверда цукерка / Hard Candy (2005) AVC Ukr/Eng | Sub Eng staf777  4 / 0   2.86 GB   2020-01-18 23:38 
   Тверда цукерка / Hard Candy (2005) mini 1080p H.265 Ukr/Eng | Sub Eng igor302  1 / 0   3.28 GB   2018-08-29 10:56 
   Тверда цукерка / Hard Candy (2005) Ukr/Eng robotron005  3 / 1   1.77 GB   2011-01-19 18:46 
bot 
робот


З нами з: 30.09.07
Востаннє: 26.05.05
Повідомлень: 26982

2018-06-10 10:31  
Тему перенесено з Анонси релізів до форуму Фільми в HD


boroznaya

boroznaya 
Попереджень: 1
Попереджень: 1 


З нами з: 02.11.12
Востаннє: 25.01.21
Повідомлень: 2934

2018-06-10 11:38  
Фільм "Тверда цукерка" на роздачі!
Приємного перегляду, Гуртомівці!

kpomed 
Частий відвідувач


З нами з: 12.10.13
Востаннє: 25.01.21
Повідомлень: 45

2021-01-09 20:40  
Роздайте хто має, дякую )
Ваш часовий пояс: GMT + 2 Години

Нова тема   Відповісти