Гаррі Поттер і келих вогню / Harry Potter and the Goblet of Fire (2005) 1080p [Open Matte] 2xUkr/Eng | Sub Eng

Нові коментарі

Нова тема   Відповісти
Автор Повідомлення
Anonymous 







2018-05-27 01:54  
Гаррі Поттер і келих вогню / Harry Potter and the Goblet of Fire (2005) 1080p [Open Matte] 2xUkr/Eng | Sub Eng

Українські постери:


автор - Gelios


автор - hellforces


автор - hellforces


автор - Воїн


Жанр: пригодницький, сімейний, фентезі
Країна: Велика Британія, США



Кінокомпанія: Warner Bros., Heyday Films, Patalex IV Productions Limited
Режисер: Майк Ньюелл
Актори: Деніел Редкліфф, Руперт Ґрінт, Емма Вотсон, Том Фелтон, Роберт Паттінсон, Ральф Файнс, Алан Рікмен, Майкл Ґембон, Меґґі Сміт, Бонні Райт, Джеймс Фелпс, Олівер Фелпс, Ґері Олдмен / Gary Oldman

Сюжет:
Гаррі, Рон и Герміона повертаються на четвертий курс до Школи Магії і Чарів Гоґвортс. При таємничих обставинах Гаррі відібрано до числа учасників небезпечного змагання – Тричаклунського Турніру, однак проблема в тому, що всі його суперники – набагато старші і сильніші. До того ж, знаки вказують на повернення Лорда Волдеморта. Дуже скоро Гаррі належить поборотися не лише за перемогу в змаганні, але й, перед усім, за власне життя.


Тривалість: 02:37:13
Якість: 1080p [Open Matte] [Amazon Video]
Відео:
кодек:
розмір кадру: 1920 x 1080
бітрейт: 10,5 Мб/с

Аудіо # 1:
мова: українська
переклад: багатоголосий закадровий
кодек: 2.0
бітрейт: 192 кб/с
Інформація про озвучення
Ролі озвучили: Павло Скороходько, Дмитро Завадський, Юлія Перенчук, Михайло Жонін, Лідія Муращенко, Андрій Самінін, Володимир Терещук, Євген Пашин, Анатолій Пашнін та інші.
Аудіо # 2:
мова: українська
переклад: багатоголосий закадровий
кодек: 2.0
бітрейт: 192 кб/с
Інформація про озвучення
Ролі озвучили:: Дмитро Терещук, Володимир Терещук, Анатолій Пашнін, Олена Бліннікова.
Аудіо # 3:
мова: англійська
переклад: оригінал
кодек: E- 5.1
бітрейт: 640 кб/с

Субтитри:
мова: англійська
тип: програмні (м'які)
формат: *.srt
Info

General
Unique ID : 118726449581470494402082708198940269562 (0x5951E1E7D926EB76855A1EB203A0DBFA)
Format :
Format version : Version 4 / Version 2
File size : 12.6 GiB
Duration : 2 h 37 min
Overall bit rate mode : Variable
Overall bit rate : 11.5 Mb/s
Movie name : Гаррі Поттер і келих вогню / Harry Potter and the Goblet of Fire (2005) [Open Matte] [Amazon] 1080p [2xUkr.Eng Sub.Eng] [Hurtom]
Encoded date : UTC 2018-05-27 14:15:20
Writing application : v21.0.0 ('Tardigrades Will Inherit The Earth') 64-bit
Writing library : libebml v1.3.5 + v1.4.8
Cover : Yes
Attachments : Cover.jpg

Video
ID : 1
Format : AVC
Format/Info : Advanced Video Codec
Format profile : [email protected]
Format settings : CABAC / 4 Ref Frames
Format settings, CABAC : Yes
Format settings, RefFrames : 4 frames
Codec ID : V_MPEG4/ISO/AVC
Duration : 2 h 37 min
Bit rate mode : Variable
Bit rate : 10.5 Mb/s
Maximum bit rate : 15.0 Mb/s
Width : 1 920 pixels
Height : 1 080 pixels
Display aspect ratio : 16:9
Frame rate mode : Constant
Frame rate : 23.976 (24000/1001) FPS
Color space : YUV
Chroma subsampling : 4:2:0
Bit depth : 8 bits
Scan type : Progressive
Bits/(Pixel*Frame) : 0.211
Stream size : 11.5 GiB (91%)
Title : Harry Potter and the Goblet of Fire (2005) [Open Matte] [Amazon] 1080p [2xUkr.Eng Sub.Eng] [Hurtom]
Language : English
Default : Yes
Forced : No
Color range : Limited
Color primaries : BT.709
Transfer characteristics : BT.709
Matrix coefficients : BT.709

Audio #1
ID : 2
Format : AC-3
Format/Info : Audio Coding 3
Codec ID : A_AC3
Duration : 2 h 37 min
Bit rate mode : Constant
Bit rate : 192 kb/s
Channel(s) : 2 channels
Channel positions : Front: L R
Sampling rate : 48.0 kHz
Frame rate : 31.250 FPS (1536 SPF)
Bit depth : 16 bits
Compression mode : Lossy
Stream size : 216 MiB (2%)
Title : MVO | Novy Kanal | 2.0 | 192 kbps
Language : Ukrainian
Service kind : Complete Main
Default : Yes
Forced : No

Audio #2
ID : 3
Format : AC-3
Format/Info : Audio Coding 3
Codec ID : A_AC3
Duration : 2 h 37 min
Bit rate mode : Constant
Bit rate : 192 kb/s
Channel(s) : 2 channels
Channel positions : Front: L R
Sampling rate : 48.0 kHz
Frame rate : 31.250 FPS (1536 SPF)
Bit depth : 16 bits
Compression mode : Lossy
Stream size : 216 MiB (2%)
Title : MVO | Inter | 2.0 | 192 kbps
Language : Ukrainian
Service kind : Complete Main
Default : No
Forced : No

Audio #3
ID : 4
Format : E-AC-3
Format/Info : Enhanced Audio Coding 3
Codec ID : A_EAC3
Duration : 2 h 37 min
Bit rate mode : Constant
Bit rate : 640 kb/s
Channel(s) : 6 channels
Channel positions : Front: L C R, Side: L R, LFE
Sampling rate : 48.0 kHz
Frame rate : 187.500 FPS (256 SPF)
Compression mode : Lossy
Stream size : 720 MiB (6%)
Title : Original
Language : English
Service kind : Complete Main
Default : No
Forced : No

Text
ID : 5
Format : UTF-8
Codec ID : S_TEXT/UTF8
Codec ID/Info : UTF-8 Plain Text
Duration : 2 h 36 min
Bit rate : 48 b/s
Count of elements : 1798
Stream size : 55.4 KiB (0%)
Title : Original (SDH)
Language : English
Default : No
Forced : No
Скріншоти














Порівняння Blu-ray з цим Open Matte
Джерело: &
Особиста оцінка: 0 - не дивився
п.??? за запис Аудіо №2
п.xslim за запис Аудіо №1
п.Gelios за опис та доріжки.

Інші фільми із серії про Гаррі Поттера.


PG-13 - рейтинг стрічки, встановлений Американською асоціацією кінокомпаній

MPAA, англ. Motion Picture Association of America - Американська асоціація кінокомпаній

Рейтинг PG-13 — Parents strongly cautioned
Діти до 13 років допускаються на фільм тільки з батьками.

Настійне застереження батькам. Деякий матеріал може бути недоречним для перегляду дітей до 13 років. Даний рейтинг показує, що оцінений фільм може непідходити для дітей. Батьки повинні бути особливо обережні, дозволяючи своїм маленьким дітям перегляд. Грубе або тривале насильство відсутнє; сексуальна орієнтація на наготу відсутня; деякі сцени вживання наркотиків можуть бути присутніми; можна почути одиничні вживання грубої сексуальної лексики.


Не забуваємо дякувати!




 Трекер:    Зареєстрований   

Завантажити / скачати фільм українською



відео для новачків



 Зареєстрований:   2018-05-27 18:16
 Розмір:   12.64 GB 
 Оцінка фільму:   9.9/10 (Голосів: 26)
   
Igor_kachynskyy 
Новенький


З нами з: 03.01.18
Востаннє: 10.08.20
Повідомлень: 15

2018-05-27 12:03  
То якесь оновлення чи то просто той самий фільм що був давно?
leicheman 
Відео Гуртом - фільмокрай
Відео Гуртом - фільмокрай


З нами з: 03.07.14
Востаннє: 25.09.20
Повідомлень: 5423

2018-05-27 20:09  
Igor_kachynskyy
Anonymous написано:
Open Matte

Seriy100293 
VIP


З нами з: 17.08.11
Востаннє: 23.09.20
Повідомлень: 464

2018-05-27 21:26  
Чи будуть такі релізи у форматі AVC, 720p?
N.W.A 
VIP


З нами з: 22.11.13
Востаннє: 24.09.20
Повідомлень: 354

2018-05-27 22:54  
Seriy100293 написано:
Чи будуть такі релізи у форматі AVC, 720p?

Приєднаюсь до запитання.
А ще цікавить чи є всі частини у Open Matte, бо 3-ї (моєї улюбленої) поки немає?

Anonymous 







2018-05-28 00:24  
..
V.i.R.u.S 
Свій


З нами з: 19.11.10
Востаннє: 25.09.20
Повідомлень: 120

2018-05-28 19:57  
Anonymous написано:

Із тих, що я знайшов, то є:
1 - є на Гуртом;
2 - є на Гуртом;
3 - Третя є, але незнаю чи то 1080p, чи насправді це 1080p. То треба уточняти!
4 - є на Гуртом;
5 - є на Гуртом;
6 - Буде;
7 - ??? - Неможу ніде знайти;
8 - бачив в інтернеті.

Тобто будуть всі крім 7??

Seriy100293 
VIP


З нами з: 17.08.11
Востаннє: 23.09.20
Повідомлень: 464

2018-05-28 22:13  
Цитата:
Від мене не буде.

А до кого можна звернутись з приводу цього?

Ваш часовий пояс: GMT + 2 Години

Нова тема   Відповісти