Пляж / The Beach (2000) 1080p Ukr/Eng | Sub Eng

Нові коментарі

Нова тема   Відповісти
Автор Повідомлення
Anonymous 







2018-05-27 01:47  
Пляж / The Beach (2000) 1080p Ukr/Eng | Sub Eng



Жанр: трилер, пригодницький, драма, романтичний
Країна: США, Велика Британія



Кінокомпанія: Figment Films
Режисер: Денні Бойл / Danny Boyle
Актори: Леонардо ДіКапріо / Leonardo DiCaprio, Віржіні Ледуаєн / Virginie Ledoyen, Тільда ​​Свінтон / Tilda Swinton, Ґійом Кане / Guillaume Canet, Роберт Карлайл / Robert Carlyle, Патерсон Джозеф / Paterson Joseph, Пітер Янґблад Гіллз / Peter Youngblood Hills та інші

Сюжет:
Молодий американець Річард у пошуках пригод їде до Таїланду, де в дешевому готелі знайомиться з дивним чоловіком. Цей чоловік передає йому карту таємного острову, де "трава" росте як бур’ян, а на пляжі живе комуна. Це і є рай на Землі. Річард розповідає про карту парочці французів, і вони утрьох вирушають на пошуки острова...
Фільм знято за однойменним романом-бестселером Алекса Ґарленда «Пляж» (The Beach, 1996).


Тривалість: 01:59:04
Якість: 1080p [Amazon Video]
Відео:
кодек:
розмір кадру: 1920 x 800
бітрейт: 9201 кб/с

Аудіо # 1: /
мова: українська
переклад: двоголосий закадровий
кодек: 2.0
бітрейт: 192 кб/с

Аудіо # 2:
мова: англійська
переклад: оригінал
кодек: E- 5.1
бітрейт: 640 кб/с

Субтитри:
мова: англійська
тип: програмні (м'які)
формат: *.srt
Info

General
Unique ID : 103013384264927804828810589286103925489 (0x4D7FA7F8FA4F677410F446C50DE642F1)
Format :
Format version : Version 4 / Version 2
File size : 8.35 GiB
Duration : 1 h 59 min
Overall bit rate mode : Variable
Overall bit rate : 10.0 Mb/s
Movie name : Пляж / The Beach (2000) [Amazon] 1080p [Ukr.Eng Sub.Eng] [Hurtom]
Encoded date : UTC 2018-05-28 21:54:53
Writing application : v21.0.0 ('Tardigrades Will Inherit The Earth') 64-bit
Writing library : libebml v1.3.5 + v1.4.8
Cover : Yes
Attachments : Cover.jpg

Video
ID : 1
Format : AVC
Format/Info : Advanced Video Codec
Format profile : [email protected]
Format settings : CABAC / 4 Ref Frames
Format settings, CABAC : Yes
Format settings, RefFrames : 4 frames
Codec ID : V_MPEG4/ISO/AVC
Duration : 1 h 59 min
Bit rate mode : Variable
Bit rate : 9 201 kb/s
Maximum bit rate : 15.0 Mb/s
Width : 1 920 pixels
Height : 800 pixels
Display aspect ratio : 2.40:1
Frame rate mode : Constant
Frame rate : 23.976 (24000/1001) FPS
Color space : YUV
Chroma subsampling : 4:2:0
Bit depth : 8 bits
Scan type : Progressive
Bits/(Pixel*Frame) : 0.250
Stream size : 7.65 GiB (92%)
Title : The Beach (2000) [Amazon] 1080p [Ukr.Eng Sub.Eng] [Hurtom]
Writing library : core 148 r2623 d5b2374
Encoding settings : cabac=1 / ref=4 / deblock=1:-1:-1 / analyse=0x3:0x133 / me=umh / subme=9 / psy=1 / psy_rd=1.00:0.15 / mixed_ref=1 / me_range=24 / chroma_me=1 / trellis=2 / 8x8dct=1 / cqm=0 / deadzone=21,11 / fast_pskip=1 / chroma_qp_offset=-3 / threads=25 / lookahead_threads=4 / sliced_threads=0 / nr=150 / decimate=1 / interlaced=0 / bluray_compat=0 / constrained_intra=0 / bframes=8 / b_pyramid=2 / b_adapt=2 / b_bias=0 / direct=3 / weightb=1 / open_gop=0 / weightp=2 / keyint=120 / keyint_min=61 / scenecut=0 / intra_refresh=0 / rc_lookahead=120 / rc=crf / mbtree=1 / crf=18.0 / qcomp=0.60 / qpmin=0 / qpmax=69 / qpstep=4 / vbv_maxrate=15000 / vbv_bufsize=31250 / crf_max=0.0 / nal_hrd=vbr / filler=0 / ip_ratio=1.40 / aq=3:1.00
Language : English
Default : Yes
Forced : No
Color range : Limited
Color primaries : BT.709
Transfer characteristics : BT.709
Matrix coefficients : BT.709

Audio #1
ID : 2
Format : AC-3
Format/Info : Audio Coding 3
Codec ID : A_AC3
Duration : 1 h 59 min
Bit rate mode : Constant
Bit rate : 192 kb/s
Channel(s) : 2 channels
Channel positions : Front: L R
Sampling rate : 48.0 kHz
Frame rate : 31.250 FPS (1536 SPF)
Bit depth : 16 bits
Compression mode : Lossy
Stream size : 163 MiB (2%)
Title : DVO | Novy Kanal / TET | 2.0 | 192 kbps
Language : Ukrainian
Service kind : Complete Main
Default : Yes
Forced : No

Audio #2
ID : 3
Format : E-AC-3
Format/Info : Enhanced Audio Coding 3
Codec ID : A_EAC3
Duration : 1 h 59 min
Bit rate mode : Constant
Bit rate : 640 kb/s
Channel(s) : 6 channels
Channel positions : Front: L C R, Side: L R, LFE
Sampling rate : 48.0 kHz
Frame rate : 187.500 FPS (256 SPF)
Compression mode : Lossy
Stream size : 545 MiB (6%)
Title : Original
Language : English
Service kind : Complete Main
Default : No
Forced : No

Text
ID : 4
Format : UTF-8
Codec ID : S_TEXT/UTF8
Codec ID/Info : UTF-8 Plain Text
Duration : 1 h 57 min
Bit rate : 48 b/s
Count of elements : 1700
Stream size : 41.4 KiB (0%)
Title : Original
Language : English
Default : No
Forced : No

Menu
00:00:00.000 : en:Bangkok (Main Titles)
00:04:40.967 : en:The Scotsman's Tale
00:09:27.753 : en:The Map
00:13:13.604 : en:An Adventure
00:16:21.709 : en:Zeph & Sammy
00:20:25.536 : en:The Haze of Infatuation
00:23:43.233 : en:The Big Swim
00:27:44.766 : en:A Lot of Dope
00:32:27.382 : en:Leap of Faith
00:34:48.147 : en:The Community
00:37:55.626 : en:The Beach
00:39:35.393 : en:Paradise
00:44:43.325 : en:Rituals
00:48:53.575 : en:Lovers
00:52:35.964 : en:The Shark
00:57:58.078 : en:The Rice Run
01:05:07.757 : en:Sal's Deal
01:10:00.216 : en:Blood & Sand
01:14:38.660 : en:Get Better or Die
01:17:24.993 : en:Richard's Problems
01:20:38.437 : en:My Own Game
01:24:29.668 : en:The Center of It All
01:26:30.789 : en:Out of Control
01:29:36.933 : en:Search & Destroy
01:32:44.662 : en:Fatal Mistake
01:38:17.369 : en:The Person I Used to Be
01:40:20.951 : en:We Have to Leave
01:45:21.960 : en:One Bullet
01:48:38.156 : en:Paradise Lost
01:52:26.635 : en:End Titles
Скріншоти














Джерело: &
Особиста оцінка: 0 - не дивився
Подяки:
За запис з ТБ подяка п.dvorsky
За опис п.SweetN
За синхронізацію п.???

R - рейтинг стрічки, встановлений Американською асоціацією кінокомпаній

MPAA, англ. Motion Picture Association of America - Американська асоціація кінокомпаній

Рейтинг R — Restricted
Підлітки до 18 років допускаються на фільм тільки у супроводі одного з батьків, або їхнього законного представника.

Обмеження — до 18 років потрібний супровід одного з батьків або дорослого опікуна (вік може змінюватися в деяких регіонах). Даний рейтинг показує, що оціночна комісія вирішила, що деякий матеріал цього фільму призначається для дорослих. Батьки повинні більше дізнатися про фільм перш, ніж узяти на його перегляд дітей. Рейтинг R також може бути призначений через використовувану у фільмі мову, теми насильства, сексу або зображення вживання наркотиків.


Не забуваємо дякувати!


Срібний реліз (на рейтинг впливає 50% завантаженого)
 Трекер:    Зареєстрований   

Завантажити / скачати фільм українською



відео для новачків



 Зареєстрований:   2018-05-29 02:08
 Розмір:   8.35 GB 
 Оцінка фільму:   9.7/10 (Голосів: 10)
   
Інші релізи
   Пляж / The Beach (2000) [Open Matte] 1080p Ukr/Eng | Sub Eng Alukret  8 / 0   11.41 GB   2020-08-26 23:53 
   Пляж / The Beach (2000) AVC [Open Matte] Ukr/Eng | Sub Eng DеLight  10 / 0   2.2 GB   2020-01-21 10:16 
   Пляж / The Beach (2000) AVC [Open Matte] Ukr/Eng | Sub Eng drop_plz  2 / 0   3.51 GB   2020-01-19 14:28 
   Пляж / The Beach (2000) 720p Ukr/Eng | sub Eng staf777  4 / 0   8.73 GB   2018-05-24 19:07 
   На пляжі / On the Beach (2000) Ukr/Eng Lan  3 / 2   3.26 GB   2010-09-21 21:36 
   Пляж / The Beach (2000) Ukr/Eng SweetN  1 / 0   2.14 GB   2009-03-28 23:42 
bot 
робот


З нами з: 30.09.07
Востаннє: 26.05.05
Повідомлень: 25548

2018-05-27 01:47  
Тему перенесено з Фільми в HD до форуму Анонси релізів


Pegass

bot 
робот


З нами з: 30.09.07
Востаннє: 26.05.05
Повідомлень: 25548

2018-05-29 02:08  
Тему перенесено з Анонси релізів до форуму Фільми в HD


Pegass

wladeeck 
Новенький


З нами з: 26.02.17
Востаннє: 22.08.20
Повідомлень: 12

2019-12-16 22:47  
H.265 ?
Akio Furukawa 
Свій


З нами з: 02.11.19
Востаннє: 20.09.20
Повідомлень: 100

2020-01-20 01:30  
Взагалі непоганий фільм, але в деталях погано продуманий і тому неправдоподібний. Постачання з «великої Землі» — настільки великі обсяги, про які йшлося, тим благеньким човником перевезти нереально. Неясно, як часто мотаються за закупами на «велику Землю» й звідки беруть на це (й на пальне для човна) гроші, адже комуна нічого не виробляє на продаж. Також без каналізації й очисних споруд у теплому й вологому тропічному кліматі мають швидко поширюватися інфекції. Дивно, що з ворогів тваринного світу показані лише акули, тоді як у тропічному лісі в будь-якому випадку мають бути паразити, шкідники, отруйні та хижі тварини. Ну й починаючи з гонів Ді Капріо у лісі вже пішли цілковиті дурощі й просто нелогічні вчинки.
8/10

Ваш часовий пояс: GMT + 2 Години

Нова тема   Відповісти