Міккі, Дональд і Ґуфі. Три мушкетери / Mickey, Donald, Goofy: The Three Musketeers (2004) 720p Ukr/Eng | Sub Eng

Нові коментарі

Нова тема   Відповісти
Автор Повідомлення
Anonymous 







2018-05-26 23:58  
Міккі, Дональд і Ґуфі. Три мушкетери / Mickey, Donald, Goofy: The Three Musketeers (2004) 720p Ukr/Eng | Sub Eng

Міккі, Дональд і Ґуфі. Три мушкетери / Mickey, Donald, Goofy: The Three Musketeers (2004) 720p Ukr/Eng | Sub Eng


Жанр: анімація, екшн, пригодницький
Країна: США



Кінокомпанія: Disneytoon Studios, Walt Disney Pictures
Режисер: Донован Кук
Ролі озвучують: Вейн Аллвін, Тоні Ансельмо, Білл Фармер, Рассі Тейлор

Сюжет:
Заповітна мрія трьох найкращих друзів Міккі, Дональда і Ґуфі - стати мушкетерами. Їх розмірене життя перекинулося догори дригом, коли трійця опинилася залучена в підступну змову капітана королівських мушкетерів Піта і лейтенанта Клерабеля, які вирішили позбутися від принцеси Мінні - єдиної перешкоди на шляху Піта до королівського трону. Можливо, Міккі, Дональд і Ґуфі і не виглядають героями, але вони мають кілька сюрпризів для капітана Піта. Дружба і згуртованість - ось їх головний козир! Друзі розуміють, що їм все до снаги, коли вони разом. Один за всіх і всі за одного!


Тривалість: 01:07:38
Якість:
Відео:
кодек:
розмір кадру: 1280x720
бітрейт: 5051 кб/с

Аудіо # 1:
мова: українська
переклад: професійний дубльований LeDoyen
кодек: 2.0 [stereo]
бітрейт: 192 кб/с
Інформація про дубляж

Аудіо # 2:
мова: англійська
переклад: оригінал
кодек: 5.1
бітрейт: 448 кб/с

Субтитри:
мова: англійська
тип: програмні (м'які)
формат: *.srt
Скріншоти




МІ
Format :
Format version : Version 4 / Version 2
File size : 2.69 GiB
Duration : 1 h 7 min
Overall bit rate : 5 688 kb/s
Encoded date : UTC 2018-05-26 22:38:52
Writing application : v22.0.0 ('At The End Of The World') 64-bit
Writing library : libebml v1.3.5 + v1.4.8

Video
ID : 1
Format : AVC
Format/Info : Advanced Video Codec
Format profile : [email protected]
Format settings, CABAC : Yes
Format settings, RefFrames : 9 frames
Codec ID : V_MPEG4/ISO/AVC
Duration : 1 h 7 min
Bit rate : 5 051 kb/s
Width : 1 280 pixels
Height : 720 pixels
Display aspect ratio : 16:9
Frame rate mode : Constant
Frame rate : 23.976 (24000/1001) FPS
Color space : YUV
Chroma subsampling : 4:2:0
Bit depth : 8 bits
Scan type : Progressive
Bits/(Pixel*Frame) : 0.229
Stream size : 2.39 GiB (89%)
Writing library : core 125 r2208 d9d2288
Encoding settings : cabac=1 / ref=9 / deblock=1:-3:-3 / analyse=0x3:0x133 / me=umh / subme=11 / psy=1 / psy_rd=1.00:0.20 / mixed_ref=1 / me_range=32 / chroma_me=1 / trellis=2 / 8x8dct=1 / cqm=0 / deadzone=21,11 / fast_pskip=0 / chroma_qp_offset=-3 / threads=12 / lookahead_threads=2 / sliced_threads=0 / nr=0 / decimate=1 / interlaced=0 / bluray_compat=0 / constrained_intra=0 / bframes=12 / b_pyramid=2 / b_adapt=2 / b_bias=0 / direct=3 / weightb=1 / open_gop=0 / weightp=2 / keyint=250 / keyint_min=23 / scenecut=40 / intra_refresh=0 / rc=crf / mbtree=0 / crf=17.0 / qcomp=0.60 / qpmin=0 / qpmax=69 / qpstep=4 / ip_ratio=1.40 / pb_ratio=1.30 / aq=1:1.00
Language : English
Default : Yes
Forced : No

Audio #1
ID : 2
Format : AC-3
Format/Info : Audio Coding 3
Format settings, Endianness : Big
Codec ID : A_AC3
Duration : 1 h 7 min
Bit rate mode : Constant
Bit rate : 192 kb/s
Channel(s) : 2 channels
Channel positions : Front: L R
Sampling rate : 48.0 kHz
Frame rate : 31.250 FPS (1536 SPF)
Bit depth : 16 bits
Compression mode : Lossy
Stream size : 93.0 MiB (3%)
Title : Dub
Language : Ukrainian
Service kind : Complete Main
Default : Yes
Forced : No

Audio #2
ID : 3
Format : AC-3
Format/Info : Audio Coding 3
Format settings, Endianness : Big
Codec ID : A_AC3
Duration : 1 h 7 min
Bit rate mode : Constant
Bit rate : 448 kb/s
Channel(s) : 6 channels
Channel positions : Front: L C R, Side: L R, LFE
Sampling rate : 48.0 kHz
Frame rate : 31.250 FPS (1536 SPF)
Bit depth : 16 bits
Compression mode : Lossy
Stream size : 217 MiB (8%)
Language : English
Service kind : Complete Main
Default : No
Forced : No

Text
ID : 4
Format : UTF-8
Codec ID : S_TEXT/UTF8
Codec ID/Info : UTF-8 Plain Text
Duration : 59 min 51 s
Bit rate : 51 b/s
Count of elements : 837
Stream size : 22.4 KiB (0%)
Language : English
Default : No
Forced : No

Menu
00:00:00.000 : en:00:00:00.000
00:04:26.183 : en:00:04:26.183
00:09:30.862 : en:00:09:30.862
00:13:30.101 : en:00:13:30.101
00:18:55.134 : en:00:18:55.134
00:22:59.962 : en:00:22:59.962
00:27:26.728 : en:00:27:26.728
00:34:42.497 : en:00:34:42.497
00:42:13.781 : en:00:42:13.781
00:47:57.917 : en:00:47:57.917
00:51:32.006 : en:00:51:32.006
00:56:36.143 : en:00:56:36.143
Подяка: Electroz за українську доріжку та її синхронізацію.
Джерело:
Особиста оцінка: 10 - без зайвих вагань рекомендую всім!


Срібний реліз (на рейтинг впливає 50% завантаженого)
 Трекер:    Зареєстрований   

Завантажити / скачати мультфільм українською



відео для новачків



 Зареєстрований:   2018-05-27 00:46
 Розмір:   2.69 GB 
 Оцінка мультфільму:   10/10 (Голосів: 9)
   
havryk 
VIP


З нами з: 29.06.10
Востаннє: 01.03.21
Повідомлень: 845

2018-05-27 00:02  
Варто додати медіа інфо і перенести у HD розділ.
ГАМК 
Забанено
Забанено


З нами з: 25.05.18
Востаннє: 29.05.18
Повідомлень: 58

2018-05-27 00:05  
І додати рік воходу
bot 
робот


З нами з: 30.09.07
Востаннє: 26.05.05
Повідомлень: 27280

2018-06-07 23:35  
Тему перенесено з Мультфільми до форуму Мультфільми в HD


Dark Invader

Ваш часовий пояс: GMT + 2 Години

Нова тема   Відповісти