Формула 1. Сезон 2018. Етап 6. Гран-Прі Монако. Кваліфікація (26.05.2018) IPTV 1080p

Нові коментарі

Нова тема   Відповісти
Останній раз роздавалося VicCob (2020-09-06)
Автор Повідомлення
sergiyko.5 
Забанено
Забанено


З нами з: 25.02.16
Востаннє: 29.10.20
Повідомлень: 3651

2018-05-26 21:04  
Формула 1. Сезон 2018. Етап 6. Гран-Прі Монако. Кваліфікація (26.05.2018) IPTV 1080p


Формула 1. Сезон 2018. Етап 6. Гран-Прі Монако. Кваліфікація (26.05.2018) IPTV 1080p

Жанр: Перегони Формули 1
Країна: Монте-Карло
Телеканал: Перший автомобільний
Коментатор: Максим Подзігун

Опис:
Кваліфікація шостого етапу Гран-Прі Монако 2018 року.


Тривалість: 01:11:22
Якість: IPTV

Відео: кодек: розмір кадру: 1920 х 1080 бітрейт: 5645 кб/с
Аудіо: мова: українська кодек: 2.0 бітрейт: 192 кб/с
Про файл:
General
Unique ID : 109506023543382331284574908245072666980 (0x526217CDC0DD44554CC0B18B5FCFE164)
Complete name : D:\Torrents\SPORT\Formula 1\F1.2018.Qualifying\F1.2018.06.Monaco.Qualifying.1080p.IPTV.Ukr.
Format :
Format version : Version 4 / Version 2
File size : 2.91 GiB
Duration : 1 h 11 min
Overall bit rate : 5 839 kb/s
Movie name : F1 2018 06 Monaco Qualifying 1080p IPTV by sergiyko
Encoded date : UTC 2018-05-26 18:51:16
Writing application : v23.0.0 ('The Bride Said No') 64-bit
Writing library : libebml v1.3.6 + v1.4.9

Video
ID : 1
Format : AVC
Format/Info : Advanced Video Codec
Format profile : [email protected]
Format settings, CABAC : Yes
Format settings, ReFrames : 2 frames
Codec ID : V_MPEG4/ISO/AVC
Duration : 1 h 11 min
Bit rate : 5 645 kb/s
Width : 1 920 pixels
Height : 1 080 pixels
Display aspect ratio : 16:9
Frame rate mode : Constant
Frame rate : 25.000 FPS
Color space : YUV
Chroma subsampling : 4:2:0
Bit depth : 8 bits
Scan type : Progressive
Bits/(Pixel*Frame) : 0.109
Stream size : 2.81 GiB (97%)
Language : English
Default : Yes
Forced : No

Audio
ID : 2
Format : AC-3
Format/Info : Audio Coding 3
Mode extension : CM (complete main)
Format settings, Endianness : Big
Codec ID : A_AC3
Duration : 1 h 11 min
Bit rate mode : Constant
Bit rate : 192 kb/s
Channel(s) : 2 channels
Channel positions : Front: L R
Sampling rate : 48.0 kHz
Frame rate : 31.250 FPS (1536 spf)
Bit depth : 16 bits
Compression mode : Lossy
Delay relative to video : 24 ms
Stream size : 98.0 MiB (3%)
Title : 1 Авто | Максим Подзігун
Language : Ukrainian
Default : Yes
Forced : No
Скріншоти:


Автор зведення: sergiyko


 Трекер:    Зареєстрований   

Завантажити / скачати торрент



відео для новачків



 Зареєстрований:   2018-05-26 21:04
 Розмір:   2.91 GB 
 Оцінка:   8.6/10 (Голосів: 13)
   
legioneRRR 
Частий відвідувач


З нами з: 02.01.15
Востаннє: 28.10.20
Повідомлень: 33

2018-05-26 21:16  
Дякую за працю!
volodymyr417 
Новенький


З нами з: 27.08.11
Востаннє: 27.10.20
Повідомлень: 10

2018-05-27 19:36  
Дякую
Ваш часовий пояс: GMT + 2 Години

Нова тема   Відповісти