Складки часу / A Wrinkle in Time (2018) 720p Ukr/Eng | Sub Eng

Нові коментарі

Нова тема   Відповісти
Автор Повідомлення
Anonymous 







2018-05-26 21:03  
Складки часу / A Wrinkle in Time (2018) 720p Ukr/Eng | Sub Eng

Складки часу / A Wrinkle in Time (2018) 720p Ukr/Eng | Sub Eng
Усі українські офіційні постери:

















Жанр: пригодницький, сімейний, фантастика, фентезі
Країна: США



Кінокомпанія: Walt Disney Pictures
Режисер: Ава ДюВерней / Ava DuVernay
Актори: Різ Візерспун / Reese Witherspoon, Кріс Пайн / Chris Pine, Опра Вінфрі / Oprah Winfrey, Сторм Рейд / Storm Reid, Ґуґу Мбата-Ров / Gugu Mbatha-Raw, Мінді Калінґ / Mindy Kaling, Леві Міллер / Levi Miller, Дерік МакКейб / Deric McCabe, Зак Ґаліфіанакіс / Zach Galifianakis, Ровен Бланчард / Rowan Blanchard, Девід Ойелово / David Oyelowo, Майкл Пенья / Michael Peña та інші

Сюжет:
Дісней запрошує у фантастичні світи! Під час проведення експерименту батько Мег, відомий вчений, безслідно зникає. На його пошуки дівчина разом зі своїм молодшим братом і однокласником вирушають у ризиковану подорож у просторі й часі. Їй належить виконати своє призначення і зупинити темряву, що перемагає світло.
Офіційні українські трейлери:




Рейтинг MPAA: PG - рекомендується присутність батьків
Вікова категорія: 6+
Тривалість: 01:49:37
Якість: 720p [HDChina]
Відео:
кодек:
розмір кадру: 1280 х 536
бітрейт: 5700 кб/с

Аудіо # 1:
мова: українська
переклад: професійний дубльований | студія LeDoyen
кодек: 5.1
бітрейт: 640 кб/с

Аудіо # 2:
мова: українська
переклад: професійний дубльований | студія LeDoyen
кодек: 5.1
бітрейт: 1509 кб/с

Аудіо # 3:
мова: англійська
переклад: оригінал
кодек: 5.1
бітрейт: 640 кб/с

Субтитри # 1-2:
мова: англійська (повні, SDH)
тип: програмні (м'які)
формат: *.srt

Збережено оригінальні розділи, як на Blu-ray
Info та log
Код:
Complete name               : A Wrinkle in Time (2018) [Ukr,Eng sub.Eng] 720p [Hurtom].
Format                      :
Format version              : Version 4
File size                   : 6.50 GiB
Duration                    : 1 h 49 min
Overall bit rate            : 8 483 kb/s
Movie name                  : Складки часу / A Wrinkle in Time (2018) [Ukr,Eng sub.Eng] 720p [Hurtom]
Released date               : 2018
Encoded date                : UTC 2018-10-12 19:09:55
Writing application         : v27.0.0 ('Metropolis') 64-bit
Writing library             : libebml v1.3.6 + v1.4.9
Cover                       : Yes
Comment                     : http://www.imdb.com/title/tt1620680/
Attachments                 : cover.jpg
ARTIST                      : Різ Візерспун / Reese Witherspoon, Кріс Пайн / Chris Pine, Опра Вінфрі / Oprah Winfrey, Сторм Рейд / Storm Reid, Ґуґу Мбата-Ров / Gugu Mbatha-Raw, Мінді Калінґ / Mindy Kaling, Леві Міллер / Levi Miller, Дерік МакКейб / Deric McCabe, Зак Ґаліфіанакіс / Zach Galifianakis, Ровен Бланчард / Rowan Blanchard, Девід Ойелово / David Oyelowo, Майкл Пенья / Michael Peña та інші
DIRECTOR                    : Ава ДюВерней / Ava DuVernay
GENRE                       : пригодницький, сімейний, фантастика, фентезі
SYNOPSIS                    : Дісней запрошує у фантастичні світи! Під час проведення експерименту батько Мег, відомий вчений, безслідно зникає. На його пошуки дівчина разом зі своїм молодшим братом і однокласником вирушають у ризиковану подорож у просторі й часі. Їй належить виконати своє призначення і зупинити темряву, що перемагає світло...
Url                         : https://toloka.to/t90209

Video
ID                          : 1
Format                      : AVC
Format/Info                 : Advanced Video Codec
Format profile              : [email protected]
Format settings             : CABAC / 12 Ref Frames
Format settings, CABAC      : Yes
Format settings, ReFrames   : 12 frames
Codec ID                    : V_MPEG4/ISO/AVC
Duration                    : 1 h 49 min
Bit rate                    : 5 700 kb/s
Width                       : 1 280 pixels
Height                      : 536 pixels
Display aspect ratio        : 2.40:1
Frame rate mode             : Constant
Frame rate                  : 23.976 (24000/1001) FPS
Color space                 : YUV
Chroma subsampling          : 4:2:0
Bit depth                   : 8 bits
Scan type                   : Progressive
Bits/(Pixel*Frame)          : 0.347
Stream size                 : 4.36 GiB (67%)
Title                       : Складки часу / A Wrinkle in Time (2018) 720p [HDChina-FFlipped]
Writing library             : core 142 r2431+42 c69a006 tMod [[email protected] X86_64]
Encoding settings           : cabac=1 / ref=12 / deblock=1:-1:-1 / analyse=0x3:0x133 / me=umh / subme=11 / psy=1 / fade_compensate=0.00 / psy_rd=1.10:0.00 / mixed_ref=1 / me_range=48 / chroma_me=1 / trellis=2 / 8x8dct=1 / cqm=0 / deadzone=21,11 / fast_pskip=0 / chroma_qp_offset=-2 / threads=16 / lookahead_threads=2 / sliced_threads=0 / nr=0 / decimate=0 / interlaced=0 / bluray_compat=0 / constrained_intra=0 / fgo=0 / bframes=9 / b_pyramid=2 / b_adapt=2 / b_bias=0 / direct=3 / weightb=1 / open_gop=0 / weightp=2 / keyint=240 / keyint_min=24 / scenecut=40 / intra_refresh=0 / rc_lookahead=0 / rc=2pass / mbtree=0 / bitrate=5700 / ratetol=1.0 / qcomp=0.70 / qpmin=0:0:0 / qpmax=69:69:69 / qpstep=4 / cplxblur=20.0 / qblur=0.5 / vbv_maxrate=50000 / vbv_bufsize=30000 / nal_hrd=none / filler=0 / ip_ratio=1.20 / pb_ratio=1.20 / aq=3:0.85 / aq-sensitivity=10.00 / aq-factor=1.00:1.00:1.00 / aq2=0 / aq3=0
Language                    : English
Default                     : Yes
Forced                      : No

Audio #1
ID                          : 2
Format                      : AC-3
Format/Info                 : Audio Coding 3
Commercial name             : Dolby Digital
Codec ID                    : A_AC3
Duration                    : 1 h 49 min
Bit rate mode               : Constant
Bit rate                    : 640 kb/s
Channel(s)                  : 6 channels
Channel layout              : L R C LFE Ls Rs
Sampling rate               : 48.0 kHz
Frame rate                  : 31.250 FPS (1536 SPF)
Bit depth                   : 16 bits
Compression mode            : Lossy
Stream size                 : 502 MiB (8%)
Title                       : Dub [LeDoyen, Hurtom] 5.1 640 Kbps
Language                    : Ukrainian
Service kind                : Complete Main
Default                     : Yes
Forced                      : No

Audio #2
ID                          : 3
Format                      :
Format/Info                 : Digital Theater Systems
Codec ID                    : A_DTS
Duration                    : 1 h 49 min
Bit rate mode               : Constant
Bit rate                    : 1 509 kb/s
Channel(s)                  : 6 channels
Channel layout              : C L R Ls Rs LFE
Sampling rate               : 48.0 kHz
Frame rate                  : 93.750 FPS (512 SPF)
Bit depth                   : 24 bits
Compression mode            : Lossy
Stream size                 : 1.16 GiB (18%)
Title                       : Dub [LeDoyen, Hurtom] 5.1 1509 Kbps
Language                    : Ukrainian
Default                     : No
Forced                      : No

Audio #3
ID                          : 4
Format                      : AC-3
Format/Info                 : Audio Coding 3
Commercial name             : Dolby Digital
Codec ID                    : A_AC3
Duration                    : 1 h 49 min
Bit rate mode               : Constant
Bit rate                    : 640 kb/s
Channel(s)                  : 6 channels
Channel layout              : L R C LFE Ls Rs
Sampling rate               : 48.0 kHz
Frame rate                  : 31.250 FPS (1536 SPF)
Bit depth                   : 16 bits
Compression mode            : Lossy
Stream size                 : 502 MiB (8%)
Title                       : Original, 5.1 640 Kbps
Language                    : English
Service kind                : Complete Main
Default                     : No
Forced                      : No

Text #1
ID                          : 5
Format                      : UTF-8
Codec ID                    : S_TEXT/UTF8
Codec ID/Info               : UTF-8 Plain Text
Duration                    : 1 h 39 min
Bit rate                    : 48 b/s
Count of elements           : 1410
Stream size                 : 35.2 KiB (0%)
Title                       : Eng full
Language                    : English
Default                     : No
Forced                      : No

Text #2
ID                          : 6
Format                      : UTF-8
Codec ID                    : S_TEXT/UTF8
Codec ID/Info               : UTF-8 Plain Text
Duration                    : 1 h 46 min
Bit rate                    : 52 b/s
Count of elements           : 1597
Stream size                 : 41.4 KiB (0%)
Title                       : Eng SDH
Language                    : English
Default                     : No
Forced                      : No

Menu
00:00:00.000                : en:00:00:00.000
00:09:39.871                : en:00:09:39.871
00:13:46.868                : en:00:13:46.868
00:18:04.083                : en:00:18:04.083
00:21:28.287                : en:00:21:28.287
00:28:32.502                : en:00:28:32.502
00:39:14.811                : en:00:39:14.811
00:48:41.252                : en:00:48:41.252
00:54:03.198                : en:00:54:03.198
01:03:04.531                : en:01:03:04.531
01:09:48.267                : en:01:09:48.267
01:19:03.197                : en:01:19:03.197
01:29:05.549                : en:01:29:05.549
01:40:03.497                : en:01:40:03.497

Код:
[info]: frame I:1358  Avg QP:12.46  size:124965
[info]: frame P:39074 Avg QP:13.95  size: 51112
[info]: frame B:117269 Avg QP:15.11  size: 21417
[info]: consecutive B-frames:  3.0%  8.2% 10.8% 18.7% 18.2% 34.4%  4.2%  1.1%  0.9%  0.6%




Підтримати купівлю інших фільмів можна тут.


Джерело: &
Подяка Hanway'ю за створення якісного звуку.

23.07.2018 реліз оновлено: замінено звук з моно на стерео
12.10.2018 реліз оновлено: замінено звук зі стерео на якісний 5.1


 Трекер:    Зареєстрований   

Завантажити / скачати фільм українською



відео для новачків



 Зареєстрований:   2018-10-12 22:41
 Розмір:   6.5 GB 
 Оцінка фільму:   8.5/10 (Голосів: 33)
 ЗАЛИШАЙТЕСЬ ЯКОМОГА ДОВШЕ НА РОЗДАЧІ! ЗАВАНТАЖИВ САМ - ДАЙ ЗАВАНТАЖИТИ ІНШИМ!
   
Інші релізи
Obey 
Свій


З нами з: 12.06.11
Востаннє: 18.10.18
Повідомлень: 72

2018-05-26 23:52  
Звук кращий варто чекати?
Anonymous 







2018-05-27 14:16  
Obey написано:
Звук кращий варто чекати?

З того, що відомо зараз - на укр.тюнсі українська не зазначена, дата релізу не вказана. В мeгoго фільм з'явиться 08.06, зараз в списку мов лише російська. Блурей від Волт Дісней Компані СНГ анонсовано на 12.07, чи буде там укр. доріжка - сумніваюсь. Про інші джерела мені невідомо, треба питатись в темі https://toloka.to/t78349

AlvadorUA 
Новенький


З нами з: 15.08.17
Востаннє: 22.10.18
Повідомлень: 17

2018-06-05 13:16  
Фільм вартий до перегляду?
Anonymous 







2018-06-05 13:26  
AlvadorUA, вартий сімейного перегляду з дітьми (старше 5-6 років, менші можуть не зрозуміти) або любителям фентезі.
Reyegar 
Новенький


З нами з: 09.12.10
Востаннє: 20.10.18
Повідомлень: 1

2018-06-09 21:37  
Мучили себе з сином до половини фільму. Ледь не заснули. Кинули пішли в футбол грати. Фільм певно не на нас з малим розрахований. Але питання на кого взагалі?)
Anonymous 







2018-07-23 21:26  
Реліз оновлено - замінено звук на якісніший
"золото" на тиждень

Anonymous 







2018-10-12 22:43  
Реліз оновлено: замінено звук зі стерео на якісний 5.1

Додано через 15 секунд:

"золото" на тиждень

art.palyutin 
Новенький


З нами з: 23.09.17
Востаннє: 21.10.18
Повідомлень: 3

2018-10-13 15:58  
Ледь додивились. Така дурня - капець
Kamper 
Частий відвідувач


З нами з: 21.01.13
Востаннє: 21.10.18
Повідомлень: 34

2018-10-14 13:16  
Дитяче кіно, для молодшого шкільного віку.
Ваш часовий пояс: GMT + 2 Години

Нова тема   Відповісти