Складки часу / A Wrinkle in Time (2018) Ukr/Eng

Нові коментарі

Нова тема   Відповісти
Автор Повідомлення
Anonymous 







2018-05-26 01:48  
Складки часу / A Wrinkle in Time (2018) Ukr/Eng

Складки часу / A Wrinkle in Time (2018) Ukr/Eng
Усі українські офіційні постери:

















Жанр: пригодницький, сімейний, фантастика, фентезі
Країна: США



Кінокомпанія: Walt Disney Pictures
Режисер: Ава ДюВерней / Ava DuVernay
Актори: Різ Візерспун / Reese Witherspoon, Кріс Пайн / Chris Pine, Опра Вінфрі / Oprah Winfrey, Сторм Рейд / Storm Reid, Ґуґу Мбата-Ров / Gugu Mbatha-Raw, Мінді Калінґ / Mindy Kaling, Леві Міллер / Levi Miller, Дерік МакКейб / Deric McCabe, Зак Ґаліфіанакіс / Zach Galifianakis, Ровен Бланчард / Rowan Blanchard, Девід Ойелово / David Oyelowo, Майкл Пенья / Michael Peña та інші

Сюжет:
Дісней запрошує у фантастичні світи! Під час проведення експерименту батько Мег, відомий вчений, безслідно зникає. На його пошуки дівчина разом зі своїм молодшим братом і однокласником вирушають у ризиковану подорож у просторі й часі. Їй належить виконати своє призначення і зупинити темряву, що перемагає світло.
Офіційні українські трейлери:




Рейтинг MPAA: PG - рекомендується присутність батьків
Вікова категорія: 6+
Тривалість: 01:49:37
Якість: [джерело: Remux]
Відео:
кодек:
розмір кадру: 720 х 304
бітрейт: 1995 кб/с

Аудіо # 1:
мова: українська
переклад: професійний дубльований | студія LeDoyen
кодек: 5.1
бітрейт: 448 кб/с
Інформація про дубляж
Переклад тексту та пісень: Олена Любенко
Режисер дубляжу: Павло Скороходько
Ролі дублювали:
Меґ - Катерина Манузіна
Пані Щоце - Людмила Ардельян,
Пані Котра - Ольга Радчук,
Пані Хто - Анна Коваль,
Чарльз-Воллес - Євген Лебедин,
Кельвін - Олег Александров,
Пан Муррі - Іван Розін,
Пані Муррі - Катерина Качан
Компроміс - Дмитро Завадський,
Червоний - Назар Задніпровський,
а також: Роман Чупіс, Михайло Войчук, Ольга Гарбузюк, Вероніка Лук'яненко, Сергій Солопай, Вікторія Кулініч, Дмитро Тварковський, Наталя Ярошенко, Євген Малуха.

Пісні виконують:
"Хутко вставай" - Анна Коваль,
"Квітка всього всесвіту" - Катерина Качан, Катерина Манузіна, Євген Лебедин

Виробництво української версії: студія дубляжу LeDoyen, мікс-студія Shepperton International, творчий консультант - Aleksandra Janikowska.

Аудіо # 2:
мова: англійська
переклад: оригінал
кодек: 5.1
бітрейт: 384 кб/с
Info
Код:
General
Complete name               : A Wrinkle in Time (2018) [Ukr,Eng] [Hurtom].avi
Format                      : AVI
Format/Info                 : Audio Video Interleave
Format profile              : OpenDML
File size                   : 2.18 GiB
Duration                    : 1 h 49 min
Overall bit rate            : 2 845 kb/s
Movie name                  : Складки часу / A Wrinkle in Time (2018) [Ukr/Eng] [Hurtom]
Genre                       : пригодницький, сімейний, фантастика, фентезі
Recorded date               : 12.10.2018
Writing application         : VirtualDubModUkr 1.5.10.2 (build 2542/release)
Writing library             : VirtualDubMod build 2542/release
Comment                     : https://toloka.to/t90195

Video
ID                          : 0
Format                      : MPEG-4 Visual
Format profile              : Advanced [email protected]
Format settings             : BVOP1 / Custom Matrix
Format settings, BVOP       : 1
Format settings, QPel       : No
Format settings, GMC        : No warppoints
Format settings, Matrix     : Custom
Codec ID                    :
Codec ID/Hint               :
Duration                    : 1 h 49 min
Bit rate                    : 1 995 kb/s
Width                       : 720 pixels
Height                      : 304 pixels
Display aspect ratio        : 2.35:1
Frame rate                  : 23.976 (24000/1001) FPS
Color space                 : YUV
Chroma subsampling          : 4:2:0
Bit depth                   : 8 bits
Scan type                   : Progressive
Compression mode            : Lossy
Bits/(Pixel*Frame)          : 0.380
Stream size                 : 1.53 GiB (70%)
Writing library             : 73

Audio #1
ID                          : 1
Format                      : AC-3
Format/Info                 : Audio Coding 3
Commercial name             : Dolby Digital
Codec ID                    : 2000
Duration                    : 1 h 49 min
Bit rate mode               : Constant
Bit rate                    : 448 kb/s
Channel(s)                  : 6 channels
Channel layout              : L R C LFE Ls Rs
Sampling rate               : 48.0 kHz
Frame rate                  : 31.250 FPS (1536 SPF)
Bit depth                   : 16 bits
Compression mode            : Lossy
Stream size                 : 351 MiB (16%)
Alignment                   : Split accross interleaves
Interleave, duration        : 42  ms (1.00 video frame)
Interleave, preload duratio : 500  ms
Title                       : UKR Dub [LeDoyen, Hurtom]
Service kind                : Complete Main

Audio #2
ID                          : 2
Format                      : AC-3
Format/Info                 : Audio Coding 3
Commercial name             : Dolby Digital
Codec ID                    : 2000
Duration                    : 1 h 49 min
Bit rate mode               : Constant
Bit rate                    : 384 kb/s
Channel(s)                  : 6 channels
Channel layout              : L R C LFE Ls Rs
Sampling rate               : 48.0 kHz
Frame rate                  : 31.250 FPS (1536 SPF)
Bit depth                   : 16 bits
Compression mode            : Lossy
Stream size                 : 301 MiB (13%)
Alignment                   : Split accross interleaves
Interleave, duration        : 42  ms (1.00 video frame)
Interleave, preload duratio : 500  ms
Title                       : Original
Service kind                : Complete Main
Ще скріншоти:
Підтримати купівлю інших фільмів можна тут.


Джерело: &
Подяка Hanway'ю за створення якісного звуку.

23.07.2018 реліз оновлено: замінено звук з моно на стерео
12.10.2018 реліз оновлено: замінено звук зі стерео на якісний 5.1 та відеоряд на якісніший, додано оригінальну доріжку


 Трекер:    Зареєстрований   

Завантажити / скачати фільм українською



відео для новачків



 Зареєстрований:   2018-10-12 20:57
 Розмір:   2.18 GB 
 Оцінка фільму:   7.7/10 (Голосів: 101)
 ЗАЛИШАЙТЕСЬ ЯКОМОГА ДОВШЕ НА РОЗДАЧІ! ЗАВАНТАЖИВ САМ - ДАЙ ЗАВАНТАЖИТИ ІНШИМ!
   
Інші релізи
viktorian1977 
Свій


З нами з: 23.12.14
Востаннє: 14.11.18
Повідомлень: 77

2018-05-30 18:25  
сценаристи покурили непогану траву...
miramaxx 
Частий відвідувач


З нами з: 18.05.11
Востаннє: 08.11.18
Повідомлень: 43

2018-05-30 23:10  
надто абстрактний алогічний та наївний фільм
Sllavko 
Свій


З нами з: 10.06.12
Востаннє: 11.11.18
Повідомлень: 135

2018-07-16 19:13  
за описом чогось відому комп'ютерну гру нагадало - ХалфЛайф)))
Anonymous 







2018-07-23 20:41  
Реліз оновлено - замінено звук на якісніший.
FAN-URAGAN 
Свій


З нами з: 30.10.10
Востаннє: 26.10.18
Повідомлень: 61

2018-07-24 12:17  
viktorian1977 то Ви ще напевне "Повний розковбас" не бачили Happy
viktorian1977 
Свій


З нами з: 23.12.14
Востаннє: 14.11.18
Повідомлень: 77

2018-07-24 20:00  
вибачте,але це х...я!!!
comandos 
Новенький


З нами з: 27.01.09
Востаннє: 04.11.18
Повідомлень: 1

2018-07-25 16:36  
Пише ж "вікова категорія: 6+"
Lil`Antoni 
VIP


З нами з: 25.02.12
Востаннє: 14.11.18
Повідомлень: 635

2018-08-23 16:52  
Сподобалась мені ця казка.
Є такий гарний посил.
Коли качав не думав що захочу собі до колкції брати.
А зараз думаю лишити Happy

Малий так доросло виглядає місцями, такий арестократ.

AldoApache 
Новенький


З нами з: 13.02.12
Востаннє: 14.11.18
Повідомлень: 3

2018-08-23 21:44  
Муть редкостная 
Anonymous 







2018-08-27 08:21  
AldoApache, в нас спілкуються українською
Цитата:
2. Правила та обмеження форуму

Всім без винятку заборонено:
2.1 Спілкуватися іншою мовою

bohda 
Новенький


З нами з: 11.02.13
Востаннє: 14.11.18
Повідомлень: 5

2018-09-16 22:59  
не трать час на перегляд цього фільму , нудятина з
хепі ендом

Anonymous 







2018-10-12 21:02  
Реліз оновлено:
- замінено звук зі стерео на якісний 5.1;
- замінено відеоряд на якісніший;
- додано оригінальну доріжку.

pushtun 
Новенький


З нами з: 19.05.09
Востаннє: 11.11.18
Повідомлень: 2

2018-10-15 17:30  
Дитячий фільм мусить бути казкою
це ж Дісней!

Mirca 
Частий відвідувач


З нами з: 26.12.10
Востаннє: 31.10.18
Повідомлень: 35

2018-10-15 22:19  
будь ласка, скажіть, що я не одна, хто не зміг до кінця додивитися. Дисней, як ти міг Sad (1)
Victor_Scythian 
Поважний учасник


З нами з: 06.01.17
Востаннє: 14.11.18
Повідомлень: 221

2018-10-16 12:43  
Пам'ятаю зранку показували якихось дитячих "головастиков", вони і то були - на рівень вище!
Ваш часовий пояс: GMT + 2 Години

Нова тема   Відповісти