Секретне досьє / The Post (2017)

Нові коментарі

Нова тема   Відповісти
Автор Повідомлення
Anonymous 







2018-05-25 23:47  
Секретне досьє / The Post (2017)

Альтернативний постер



Жанр: трилер, драма, біографічний, історичний
Країна: США, Велика Британія



Кінокомпанія: Amblin Entertainment, DreamWorks, Participant Media
Режисер: Стівен Спілберґ / Steven Spielberg
Актори: Меріл Стріп / Meryl Streep, Том Генкс / Tom Hanks, Сара Полсон / Sarah Paulson, Боб Оденкірк / Bob Odenkirk, Трейсі Леттс / Tracy Letts, Бредлі Вітфорд / Bradley Whitford, Брюс Ґрінвуд / Bruce Greenwood, Меттью Різ / Matthew Rhys, Елісон Брі / Alison Brie, Керрі Кун / Carrie Coon та інші

Сюжет:
Події розгортаються у США у 1971 році. У розпалі В’єтнамська війна, на якій щодня гинуть люди. Кей Грем (Меріл Стріп), що володіє газетою Washington Post отримує із Пентагону пакет засекречених документів, оприлюднення яких призведе до величезного скандалу. Разом із редактором свого видання Беном Бредлі (Том Хенкс), а також колегами із газети The New York Times вони вирішують друкувати матеріали. Це стається попри загрозу судових позовів, у результаті яких влада Сполучених Штатів планує назавжди припинити роботу обох видань. Таємна переписка політичної верхівки про В’єтнамську війну все ж таки побачила світ.
Офіційний український трейлер:


Рейтинг MPAA: PG-13 - дітям до 13 років перегляд не бажаний
Вікова категорія: 12+

Тривалість: 01:55:59
Якість:
Відео:
кодек:
розмір кадру: 704 х 384
бітрейт: 1347 кб/с

Аудіо:
мова: українська
переклад: професійний дубльований | студія LeDoyen
кодек: 2.0
бітрейт: 192 кб/с
Інформація про дубляж
Переклад: Олена Любенко
Режисер дубляжу: Ольга Фокіна
Звукорежисер: Всеволод Солнцев
Координатор дубляжу: Ольга Боєва
Ролі дублювали: Ніна Касторф, Євген Пашин, Євген Малуха, Микола Боклан, Юрій Гребельник, Володимир Терещук, Олег Лепенець, Андрій Мостренко, Катерина Сергеєва, Роман Чорний, Олесь Гімбаржевський, Владислав Пупков, Лариса Руснак, Марина Локтіонова та інші.

Фільм надано компанією Universal, дубльовано студією LeDoyen на замовлення компанії B&H Film Distribution, зміксовано студією LeDoyen.
Info
Код:
General
Complete name               : The Post (2017) [Ukr] [Hurtom].avi
Format                      : AVI
Format/Info                 : Audio Video Interleave
File size                   : 1.25 GiB
Duration                    : 1 h 55 min
Overall bit rate            : 1 549 kb/s
Movie name                  : Секретне досьє / The Post (2017) [Ukr] [Hurtom]
Genre                       : трилер, драма, біографічний, історичний
Writing application         : VirtualDubModUkr 1.5.10.2 (build 2542/release)
Writing library             : VirtualDubMod build 2542/release
Comment                     : https://toloka.to/t90194

Video
ID                          : 0
Format                      : MPEG-4 Visual
Format profile              : Advanced [email protected]
Format settings             : BVOP1 / Custom Matrix
Format settings, BVOP       : 1
Format settings, QPel       : No
Format settings, GMC        : No warppoints
Format settings, Matrix     : Custom
Codec ID                    :
Codec ID/Hint               :
Duration                    : 1 h 55 min
Bit rate                    : 1 347 kb/s
Width                       : 704 pixels
Height                      : 384 pixels
Display aspect ratio        : 1.85:1
Frame rate                  : 23.976 (24000/1001) FPS
Color space                 : YUV
Chroma subsampling          : 4:2:0
Bit depth                   : 8 bits
Scan type                   : Progressive
Compression mode            : Lossy
Bits/(Pixel*Frame)          : 0.208
Stream size                 : 1.09 GiB (87%)
Writing library             : 73

Audio
ID                          : 1
Format                      : AC-3
Format/Info                 : Audio Coding 3
Codec ID                    : 2000
Duration                    : 1 h 55 min
Bit rate mode               : Constant
Bit rate                    : 192 kb/s
Channel(s)                  : 2 channels
Channel positions           : Front: L R
Sampling rate               : 48.0 kHz
Frame rate                  : 31.250 FPS (1536 SPF)
Bit depth                   : 16 bits
Compression mode            : Lossy
Stream size                 : 159 MiB (12%)
Alignment                   : Split accross interleaves
Interleave, duration        : 42  ms (1.00 video frame)
Interleave, preload duratio : 500  ms
Title                       : UKR DUB [LeDoyen, iTunes]
Service kind                : Complete Main


Підтримати купівлю інших фільмів можна тут


Джерело: &


 Трекер:    Зареєстрований   

Завантажити / скачати фільм українською



відео для новачків



 Зареєстрований:   2018-05-26 00:52
 Розмір:   1.25 GB 
 Оцінка фільму:   9.2/10 (Голосів: 73)
   
Інші релізи
   Секретне досьє / The Post (2017) Remux 1080p Ukr/Eng | Sub Eng staf777  7 / 0   28.58 GB   2018-05-27 14:56 
   Секретне досьє / The Post (2017) 1080p Ukr/Eng | Sub Eng staf777  9 / 0   8.77 GB   2018-05-27 12:38 
   Секретне досьє / The Post (2017) 720p Ukr/Eng | Sub Eng 11FrYkT  11 / 0   4.97 GB   2018-05-26 08:53 
   Секретне досьє / The Post (2017) AVC Ukr/Eng | Sub Eng Electroz  24 / 0   1.92 GB   2018-05-25 23:29 
StasStasikov 
Новенький


З нами з: 19.06.16
Востаннє: 14.12.19
Повідомлень: 5

2018-05-30 13:26  
Яка чудова стрічка! Дуже дякуюHappy
qarty1 
VIP


З нами з: 01.11.09
Востаннє: 16.12.19
Повідомлень: 286

2018-10-12 21:31  
справжні журналісти. в 21 столітті за таке вбивають журналістів або вони переховуються, немає свободи
yasav 
Поважний учасник


З нами з: 05.12.17
Востаннє: 16.12.19
Повідомлень: 209

2018-10-12 21:43  
Непоганий фільм
GERELEY 
Частий відвідувач


З нами з: 04.01.11
Востаннє: 15.12.19
Повідомлень: 27

2018-10-21 10:25  
Станьте будь ласка на роздачу!!!!Дякую!!!
andriy_nv 
VIP


З нами з: 27.06.08
Востаннє: 15.12.19
Повідомлень: 964

2019-02-10 18:20  
цікаве кіно
про вільну пресу та демократію

Rockwell 
Свій


З нами з: 27.10.13
Востаннє: 16.12.19
Повідомлень: 59

2019-02-11 09:24  
Фільм дуже сподобався. Тримає у напрузі до завершення.
yuranako 
VIP


З нами з: 03.11.10
Востаннє: 16.12.19
Повідомлень: 1230

2019-12-15 20:40  
Не знав про цю історію взагалі, тому із задоволенням подивився. Про звичайних людей, які під впливом обставин змушені приймати складні неоднозначні рішення, які вплинуть на багатьох. В даному випадку на цілу країну і навіть більше, з наслідками для себе і для інших, які неможливо спрогнозувати. 8 з 10.
Наприкінці є коротенька ремарка, що відбувалося далі. А далі відбувалося те, що зображено у фільмі "Уся президентська рать". Кому ця тема цікава, раджу глянути і його.

Ваш часовий пояс: GMT + 2 Години

Нова тема   Відповісти