Ліга видатних джентельменів / League of the extraordinary gentlemen (2003) 1080p H.265 2xUkr/Eng | Sub Eng

Нові коментарі

Нова тема   Відповісти
Автор Повідомлення
ukr_anonymous 
Попереджень: 1
Попереджень: 1 


З нами з: 17.04.18
Востаннє: 17.05.19
Повідомлень: 234

2018-05-25 22:03  
Ліга видатних джентельменів / League of the extraordinary gentlemen (2003) 1080p H.265 2xUkr/Eng | Sub Eng

Ліга видатних джентельменів / League of the extraordinary gentlemen (2003) 1080p H.265 2xUkr/Eng | Sub Eng

Жанр: фантастика
Країна: США



Кінокомпанія: 20th Century Fox
Режисер: Стівен Норрінгтон
Актори: Шон Коннері, Нассерудін Шах, Пета Уїлсон, Тоні Керрен, Ітюарт Таунсенд, Шейн Уест, Джейсон Флеммінг, Мекс Раян, Річард Роксбро, Том Гудмен-Хілл

Сюжет:
Кінець 19-го століття. Фантом, божевільний у масці та з величезною манією величі, має нездоровий план - розпочати війну, що охопить весь світ. Щоб зупинити це, англійська розвідка наймає не будь кого, а самого Алана Квотермена. Допомогти йому вполювати Фантома взялися ще шість інших незвичайних людей - невмирущий Доріан Грей, хоробрий Том Сойер, іноді неконтрольований Др. Джекіл, невидимий пан Хайд, чарівна пані Харкер, жертва графа Дракули, та відомий мандрівник та пірат Немо. Лише об'єднавши свої сили разом вони зможуть зупинити Фантома та руйнування.


Тривалість: 01:50:08
Якість:
Відео:
кодек: H.265 (HEVC)
розмір кадру: 1920 х 812
бітрейт: 5 530 кб/с
бітова глибина: 10 біт
Увага! Перед завантаженням переконайтесь, що ваш пристрій відтворення (та/або ПЗ) підтримує H.265 (HEVC)

Аудіо # 1:
мова: українська
переклад: багатоголосий закадровий
кодек: 5.1
бітрейт: 384 кб/с

Аудіо # 2:
мова: українська
переклад: професійний дубльований | (Вставки з 1+1 на неперекладені місця)
кодек: 5.1
бітрейт: 384 кб/с

Аудіо # 3:
мова: англійська
переклад: оригінал
кодек: 5.1
бітрейт: 384 кб/с

Субтитри:
мова: англійська (Full)
тип: програмні (м'які)
формат: *.srt
Info
General
Unique ID : 339687352274612593358396350631920846190 (0xFF8D678351D624C62A4462C4B89CC56E)
Complete name : D:\Video\The League of Extraordinary Gentlemen (2003) 1080p H.265 [2xUKR_ENG].
Format :
Format version : Version 4 / Version 2
File size : 5.14 GiB
Duration : 1 h 50 min
Overall bit rate : 6 683 kb/s
Movie name : The League of Extraordinary Gentlemen
Encoded date : UTC 2018-05-25 18:27:14
Writing application : v22.0.0 ('At The End Of The World') 64-bit
Writing library : libebml v1.3.5 + v1.4.8
Cover : Yes
Attachments : Cover.jpg

Video
ID : 1
Format : HEVC
Format/Info : High Efficiency Video Coding
Format profile : Main [email protected]@Main
Codec ID : V_MPEGH/ISO/HEVC
Duration : 1 h 50 min
Bit rate : 5 530 kb/s
Width : 1 920 pixels
Height : 812 pixels
Display aspect ratio : 2.35:1
Frame rate mode : Constant
Frame rate : 23.976 (24000/1001) FPS
Color space : YUV
Chroma subsampling : 4:2:0
Bit depth : 10 bits
Bits/(Pixel*Frame) : 0.148
Stream size : 4.25 GiB (83%)
Writing library : x265 2.3+27-7e137e3ae083:[Windows][GCC 5.3.1][64 bit] 10bit
Encoding settings : cpuid=1173503 / frame-threads=2 / numa-pools=4 / wpp / no-pmode / no-pme / no-psnr / no-ssim / log-level=2 / input-csp=1 / input-res=1920x812 / interlace=0 / total-frames=0 / level-idc=0 / high-tier=1 / uhd-bd=0 / ref=4 / no-allow-non-conformance / no-repeat-headers / annexb / no-aud / no-hrd / info / hash=0 / no-temporal-layers / open-gop / min-keyint=23 / keyint=480 / bframes=10 / b-adapt=2 / b-pyramid / bframe-bias=0 / rc-lookahead=60 / lookahead-slices=0 / scenecut=20 / no-intra-refresh / ctu=64 / min-cu-size=8 / no-rect / no-amp / max-tu-size=32 / tu-inter-depth=4 / tu-intra-depth=4 / limit-tu=4 / rdoq-level=2 / dynamic-rd=0.00 / signhide / no-tskip / nr-intra=0 / nr-inter=0 / no-constrained-intra / strong-intra-smoothing / max-merge=3 / limit-refs=0 / no-limit-modes / me=3 / subme=5 / merange=32 / temporal-mvp / weightp / weightb / no-analyze-src-pics / deblock=-3:-3 / no-sao / no-sao-non-deblock / rd=4 / no-early-skip / rskip / no-fast-intra / no-tskip-fast / no-cu-lossless / b-intra / rdpenalty=0 / psy-rd=1.00 / psy-rdoq=1.00 / no-rd-refine / analysis-mode=0 / no-lossless / cbqpoffs=0 / crqpoffs=0 / rc=crf / crf=20.0 / qcomp=0.90 / qpstep=4 / stats-write=0 / stats-read=0 / ipratio=1.40 / pbratio=1.30 / aq-mode=1 / aq-strength=0.50 / cutree / zone-count=0 / no-strict-cbr / qg-size=16 / no-rc-grain / qpmax=69 / qpmin=0 / sar=0 / overscan=0 / videoformat=5 / range=0 / colorprim=2 / transfer=2 / colormatrix=2 / chromaloc=0 / display-window=0 / max-cll=0,0 / min-luma=0 / max-luma=1023 / log2-max-poc-lsb=8 / vui-timing-info / vui-hrd-info / slices=1 / opt-qp-pps / opt-ref-list-length-pps / no-multi-pass-opt-rps / scenecut-bias=0.10 / no-opt-cu-delta-qp / aq-motion / no-hdr / no-hdr-opt / refine-level=5
Default : Yes
Forced : No

Audio #1
ID : 2
Format : AC-3
Format/Info : Audio Coding 3
Codec ID : A_AC3
Duration : 1 h 50 min
Bit rate mode : Constant
Bit rate : 384 kb/s
Channel(s) : 6 channels
Channel positions : Front: L C R, Side: L R, LFE
Sampling rate : 48.0 kHz
Frame rate : 31.250 FPS (1536 SPF)
Bit depth : 16 bits
Compression mode : Lossy
Delay relative to video : 2 s 0 ms
Stream size : 302 MiB (6%)
Title : 1+1
Language : Ukrainian
Service kind : Complete Main
Default : Yes
Forced : No

Audio #2
ID : 3
Format : AC-3
Format/Info : Audio Coding 3
Codec ID : A_AC3
Duration : 1 h 50 min
Bit rate mode : Constant
Bit rate : 384 kb/s
Channel(s) : 6 channels
Channel positions : Front: L C R, Side: L R, LFE
Sampling rate : 48.0 kHz
Frame rate : 31.250 FPS (1536 SPF)
Bit depth : 16 bits
Compression mode : Lossy
Delay relative to video : 2 s 0 ms
Stream size : 302 MiB (6%)
Title : ICTV
Language : Ukrainian
Service kind : Complete Main
Default : No
Forced : No

Audio #3
ID : 4
Format : AC-3
Format/Info : Audio Coding 3
Codec ID : A_AC3
Duration : 1 h 50 min
Bit rate mode : Constant
Bit rate : 384 kb/s
Channel(s) : 6 channels
Channel positions : Front: L C R, Side: L R, LFE
Sampling rate : 48.0 kHz
Frame rate : 31.250 FPS (1536 SPF)
Bit depth : 16 bits
Compression mode : Lossy
Delay relative to video : 2 s 0 ms
Stream size : 302 MiB (6%)
Title : Original
Language : English
Service kind : Complete Main
Default : No
Forced : No

Text
ID : 5
Format : UTF-8
Codec ID : S_TEXT/UTF8
Codec ID/Info : UTF-8 Plain Text
Duration : 1 h 40 min
Bit rate : 38 b/s
Count of elements : 851
Stream size : 28.3 KiB (0%)
Title : Full
Language : English
Default : No
Forced : No

Menu
00:00:00.000 : en:00:00:00.000
00:05:10.185 : en:00:05:10.185
00:09:11.676 : en:00:09:11.676
00:12:57.527 : en:00:12:57.527
00:20:45.119 : en:00:20:45.119
00:24:13.786 : en:00:24:13.786
00:28:46.266 : en:00:28:46.266
00:29:48.412 : en:00:29:48.412
00:33:06.818 : en:00:33:06.818
00:38:47.283 : en:00:38:47.283
00:40:54.118 : en:00:40:54.118
00:43:39.033 : en:00:43:39.033
00:47:56.290 : en:00:47:56.290
00:52:26.477 : en:00:52:26.477
01:01:14.212 : en:01:01:14.212
01:03:21.506 : en:01:03:21.506
01:06:00.790 : en:01:06:00.790
01:10:11.958 : en:01:10:11.958
01:12:56.080 : en:01:12:56.080
01:16:31.754 : en:01:16:31.754
01:18:44.178 : en:01:18:44.178
01:21:03.859 : en:01:21:03.859
01:26:51.873 : en:01:26:51.873
01:27:26.575 : en:01:27:26.575
01:29:19.354 : en:01:29:19.354
01:31:41.996 : en:01:31:41.996
01:33:46.162 : en:01:33:46.162
01:36:22.360 : en:01:36:22.360
01:38:01.876 : en:01:38:01.876
01:39:57.283 : en:01:39:57.283
01:42:10.624 : en:01:42:10.624
01:42:50.039 : en:01:42:50.039
Скріншоти



Джерело:
Особиста оцінка: 0 - не дивився


Срібний реліз (на рейтинг впливає 50% завантаженого)
 Трекер:    Зареєстрований   

Завантажити / скачати фільм українською



відео для новачків



 Зареєстрований:   2018-05-25 22:03
 Розмір:   5.14 GB 
 Оцінка фільму:   8.9/10 (Голосів: 13)
   
troubless 
Свій


З нами з: 15.06.11
Востаннє: 18.05.19
Повідомлень: 51

2018-05-26 22:00  
Цитата:
Тривалість: 01:56:08

Цитата:
Duration : 1 h 50 min

Кому вірити?

ukr_anonymous 
Попереджень: 1
Попереджень: 1 


З нами з: 17.04.18
Востаннє: 17.05.19
Повідомлень: 234

2018-05-27 01:38  
troubless написано:
Кому вірити?

Виправив. Тривалість фільму - 1:50:08.

Ваш часовий пояс: GMT + 2 Години

Нова тема   Відповісти