Цілком таємно / Top Secret! (1984) 1080p Ukr/Eng | Sub Eng

Нові коментарі

Нова тема   Відповісти
Автор Повідомлення
staf777 
Відео Гуртом - підтримка та поширення
Відео Гуртом - підтримка та поширення


З нами з: 16.11.16
Востаннє: 27.09.20
Повідомлень: 4053

2018-05-25 18:36  
Цілком таємно / Top Secret! (1984) 1080p Ukr/Eng | Sub Eng

Цілком таємно / Top Secret! (1984) 1080p Ukr/Eng | Sub Eng


Жанр: пародія, комедія
Країна: США



Кінокомпанія: Kingsmere Properties, Paramount Pictures
Режисер: Джим Ейбрахамс (Jim Abrahams), Девід Цукер (David Zucker), Джеррі Цукер (Jerry Zucker)
Актори: Вел Кілмер (Val Kilmer), Люсі Гатрідж (Lucy Gutteridge), Омар Шариф (Omar Sharif), Пітер Кашін (Peter Cushing), Джеремі Кемп (Jeremy Kemp)

Сюжет:
Фільм розповідає про Ніка Ріверса (Кілмер), американського поп-співака (чиї пісні надзвичайно схожі на твори Елвіса Преслі, Біч Бойз та Літл Річарда), який прибуває до Східної Німеччини для виступу на фестиваль мистецтв. (Як виявилося, Східна Німеччина ще перебуває під диктатом нацизму і під атакою Французького опору.) Перебуваючи там, він (Нік Ріверс) стає втягнутим в рух опору і допомагає красуні Гіллері Флемонд врятувати її батька, видатного вченого, затриманого німцями й вимушеного будувати смертоносну магнітну міну Поляріс.


Тривалість: 01:30:05
Якість: 1080p [Amazon]
Відео:
кодек:
розмір кадру: 1920x1080
бітрейт: 14,6 Mб/с

Аудіо # 1:
мова: українська
переклад: багатоголосий закадровий
кодек: 2.0
бітрейт: 224 кб/с

Аудіо # 2:
мова: англійська
переклад: оригінал
кодек: E- 5.1
бітрейт: 640 кб/с

Джерело озвучення:


Субтитри:
мова: англійська
тип: програмні (м'які)
формат: *.srt
Info
General
Unique ID : 221839565189712316785815398682980249470 (0xA6E4BF0359AB8C9A9C77045F987FEF7E)
Complete name : H:\Майбутні релізи\Top Secret! (1984) 1080p [Ukr][Eng][Sub Eng][Hurtom].
Format :
Format version : Version 4 / Version 2
File size : 9.71 GiB
Duration : 1 h 30 min
Overall bit rate mode : Variable
Overall bit rate : 15.4 Mb/s
Movie name : Top Secret! (1984) 1080p [Ukr][Eng][Sub Eng][Hurtom]
Encoded date : UTC 2018-05-25 16:22:11
Writing application : v9.8.0 ('Kuglblids') 64bit
Writing library : libebml v1.3.4 + v1.4.5
Cover : Yes
Attachments : cover.jpg

Video
ID : 1
Format : AVC
Format/Info : Advanced Video Codec
Format profile : [email protected]
Format settings : CABAC / 4 Ref Frames
Format settings, CABAC : Yes
Format settings, ReFrames : 4 frames
Codec ID : V_MPEG4/ISO/AVC
Duration : 1 h 30 min
Bit rate mode : Variable
Bit rate : 14.6 Mb/s
Maximum bit rate : 15.0 Mb/s
Width : 1 920 pixels
Height : 1 080 pixels
Display aspect ratio : 16:9
Frame rate mode : Constant
Frame rate : 23.976 (24000/1001) FPS
Color space : YUV
Chroma subsampling : 4:2:0
Bit depth : 8 bits
Scan type : Progressive
Bits/(Pixel*Frame) : 0.293
Stream size : 9.16 GiB (94%)
Title : Top Secret!(1984)..1080p
Writing library : core 148 r2623 d5b2374
Encoding settings : cabac=1 / ref=4 / deblock=1:-1:-1 / analyse=0x3:0x133 / me=umh / subme=9 / psy=1 / psy_rd=1.00:0.15 / mixed_ref=1 / me_range=24 / chroma_me=1 / trellis=2 / 8x8dct=1 / cqm=0 / deadzone=21,11 / fast_pskip=1 / chroma_qp_offset=-3 / threads=34 / lookahead_threads=5 / sliced_threads=0 / nr=150 / decimate=1 / interlaced=0 / bluray_compat=0 / constrained_intra=0 / bframes=8 / b_pyramid=2 / b_adapt=2 / b_bias=0 / direct=3 / weightb=1 / open_gop=0 / weightp=2 / keyint=120 / keyint_min=61 / scenecut=0 / intra_refresh=0 / rc_lookahead=120 / rc=crf / mbtree=1 / crf=18.0 / qcomp=0.60 / qpmin=0 / qpmax=69 / qpstep=4 / vbv_maxrate=15000 / vbv_bufsize=31250 / crf_max=0.0 / nal_hrd=vbr / filler=0 / ip_ratio=1.40 / aq=3:1.00
Language : English
Default : Yes
Forced : No
Color range : Limited
Color primaries : BT.709
Transfer characteristics : BT.709
Matrix coefficients : BT.709

Audio #1
ID : 2
Format : AC-3
Format/Info : Audio Coding 3
Codec ID : A_AC3
Duration : 1 h 30 min
Bit rate mode : Constant
Bit rate : 224 kb/s
Channel(s) : 2 channels
Channel positions : Front: L R
Sampling rate : 48.0 kHz
Frame rate : 31.250 FPS (1536 SPF)
Bit depth : 16 bits
Compression mode : Lossy
Stream size : 144 MiB (1%)
Title : 2.0 @ 224 kbps - MVO, 1+1
Language : Ukrainian
Service kind : Complete Main
Default : Yes
Forced : Yes

Audio #2
ID : 3
Format : E-AC-3
Format/Info : Enhanced Audio Coding 3
Codec ID : A_EAC3
Duration : 1 h 30 min
Bit rate mode : Constant
Bit rate : 640 kb/s
Channel(s) : 6 channels
Channel positions : Front: L C R, Side: L R, LFE
Sampling rate : 48.0 kHz
Frame rate : 187.500 FPS (256 SPF)
Compression mode : Lossy
Stream size : 412 MiB (4%)
Title : E- 5.1 @ 640 kbps - Original
Language : English
Service kind : Complete Main
Default : No
Forced : No

Text
ID : 4
Format : UTF-8
Codec ID : S_TEXT/UTF8
Codec ID/Info : UTF-8 Plain Text
Duration : 1 h 29 min
Bit rate : 58 b/s
Count of elements : 1230
Stream size : 38.6 KiB (0%)
Title : SDN
Language : English
Default : No
Forced : No

Menu
00:00:00.000 : en:Trouble On The Berlin Express
00:01:23.000 : en:Global Domination
00:03:13.000 : en:Skeet Surfing
00:06:17.000 : en:Nick Rivers
00:09:59.000 : en:The Cultural Festival
00:11:37.000 : en:Party Tricks
00:13:33.000 : en:East German National Anthem
00:14:33.000 : en:Table For Two
00:16:46.000 : en:Folk Dancing
00:22:12.000 : en:Das Tutti Frutti
00:27:28.000 : en:The Nutcracker Suite
00:30:31.000 : en:Lengthy Incarceration
00:35:59.000 : en:Escape Attempts
00:37:15.000 : en:Dr. Paul Flammond
00:39:19.000 : en:Nick Rivers In Concert
00:44:09.000 : en:Pigeon Park
00:46:34.000 : en:The Swedish Bookstore
00:48:21.000 : en:Childhood Stories/"Are You Lonesome Tonight?"
00:53:17.000 : en:Meeting With Some Resistance
00:54:52.000 : en:The Torch
00:59:49.000 : en:Nice Shooting
01:02:24.000 : en:Der Pizza Haus/"Straighten The Rug"
01:08:01.000 : en:One Of The Herd
01:14:05.000 : en:Breaking Into Flugeldorf Prison
01:16:03.000 : en:Double Cross
01:20:31.000 : en:Underwater Bar Room Brawl
01:23:04.000 : en:Romantic Finale
01:25:53.000 : en:End Credits/"Spend This Night With Me"
Скріншоти



Джерело: &
Особиста оцінка: 0 - не дивився


Срібний реліз (на рейтинг впливає 50% завантаженого)
 Трекер:    Зареєстрований   

Завантажити / скачати фільм українською



відео для новачків



 Зареєстрований:   2018-05-26 15:05
 Розмір:   9.71 GB 
 Оцінка фільму:   8.8/10 (Голосів: 12)
   
Інші релізи
   Цілком таємно / Top Secret! (1984) [MP4, 640x] apvAltisimo  0 / 0   579 MB   2016-06-22 16:56 
   Цілком таємно / Top Secret! (1984) Ukr/Eng Ramirezz  4 / 0   1.36 GB   2014-11-27 21:27 
   Цілком таємно / Top Secret! (1984) 720p Ukr/Eng | Sub Eng pohgejib  1 / 0   3.4 GB   2013-06-17 19:20 
bot 
робот


З нами з: 30.09.07
Востаннє: 26.05.05
Повідомлень: 25634

2018-05-26 15:05  
Тему перенесено з Анонси релізів до форуму Фільми в HD


staf777

boroznaya 
Попереджень: 1
Попереджень: 1 


З нами з: 02.11.12
Востаннє: 27.09.20
Повідомлень: 2938

2018-06-03 19:58  
Дивно, але раніше не доводилось бачити це творіння.
Після кількох невдалих спроб переглянути фільм, довелось його видалити ...

Timm 
Поважний учасник


З нами з: 04.12.15
Востаннє: 26.09.20
Повідомлень: 216

2020-04-08 21:33  
boroznaya
чого? не сподобався чи через технічні пролеми?

Ваш часовий пояс: GMT + 2 Години

Нова тема   Відповісти