Пісня моря / Song of the Sea (2014) 1080p H.265 Ukr/Eng | sub Eng

Нові коментарі

Нова тема   Відповісти
Автор Повідомлення
ukr_anonymous 
Забанено
Забанено


З нами з: 16.04.18
Востаннє: 17.11.19
Повідомлень: 233

2018-05-25 16:51  
Пісня моря / Song of the Sea (2014) 1080p H.265 Ukr/Eng | sub Eng

Пісня моря / Song of the Sea (2014) 1080p H.265 Ukr/Eng | sub Eng

Жанр: анімаційний, сімейний, фентезі
Країна: Ірландія, Данія, Бельгія, Люксембург, Франція



Кінокомпанія: Big Farm, Cartoon Saloon, Digital Graphics
Режисер: Томм Мур
Актори: Девід Рол, Брендан Глісон, Ліза Ханніган, Фіонулла Фленеген, Пет Шорт, Джон Кенні

Сюжет:
Маленька дівчинка на ім'я Сірша, яка вміє перетворюватися на тюленя, вирушає у подорож разом із братом, аби врятувати світ духів та інших чарівних істот, як і вона.


Перекладено та озвучено студією Омікрон на замовлення HURTOM.COM


Тривалість: 01:33:59
Якість:
Відео:
кодек: H.265 (HEVC)
розмір кадру: 1920 х 1036
бітрейт: 7 114 кб/с
бітова глибина: 10 біт
Увага! Перед завантаженням переконайтесь, що ваш пристрій відтворення (та/або ПЗ) підтримує H.265 (HEVC)

Аудіо # 1:
мова: українська | студія Омікрон
переклад: багатоголосий закадровий
кодек: 5.1
бітрейт: 448 кб/с

Аудіо # 2:
мова: англійська
переклад: оригінал
кодек: 5.1
бітрейт: 448 кб/с

Субтитри:
мова: англійська
тип: програмні (м'які)
формат: *.srt
Info
General
Unique ID : 281524702045205349620017411033970803407 (0xD3CBAF74C261906C7B173B7A5A5082CF)
Complete name : E:\video\Song of the Sea (2014) 1080p H.265 [UKR_ENG].
Format :
Format version : Version 4 / Version 2
File size : 5.26 GiB
Duration : 1 h 33 min
Overall bit rate : 8 013 kb/s
Movie name : Пісня моря / Song of the Sea (2014)
Encoded date : UTC 2018-05-25 14:37:39
Writing application : v22.0.0 ('At The End Of The World') 64-bit
Writing library : libebml v1.3.5 + v1.4.8
Cover : Yes
Attachments : Cover.jpg

Video
ID : 1
Format : HEVC
Format/Info : High Efficiency Video Coding
Format profile : Main [email protected]@Main
Codec ID : V_MPEGH/ISO/HEVC
Duration : 1 h 33 min
Bit rate : 7 114 kb/s
Width : 1 920 pixels
Height : 1 036 pixels
Display aspect ratio : 1.85:1
Frame rate mode : Constant
Frame rate : 23.976 (24000/1001) FPS
Color space : YUV
Chroma subsampling : 4:2:0
Bit depth : 10 bits
Bits/(Pixel*Frame) : 0.149
Stream size : 4.67 GiB (89%)
Writing library : x265 2.7+342-930e3cc385df:[Windows][MSVC 1914][64 bit] 10bit
Encoding settings : cpuid=1049583 / frame-threads=3 / numa-pools=12 / wpp / no-pmode / no-pme / no-psnr / no-ssim / log-level=2 / input-csp=1 / input-res=1920x1036 / interlace=0 / total-frames=135216 / level-idc=0 / high-tier=1 / uhd-bd=0 / ref=6 / no-allow-non-conformance / no-repeat-headers / annexb / no-aud / no-hrd / info / hash=0 / no-temporal-layers / open-gop / min-keyint=24 / keyint=240 / gop-lookahead=0 / bframes=9 / b-adapt=2 / b-pyramid / bframe-bias=0 / rc-lookahead=40 / lookahead-slices=0 / scenecut=40 / radl=0 / no-intra-refresh / ctu=64 / min-cu-size=8 / no-rect / no-amp / max-tu-size=32 / tu-inter-depth=4 / tu-intra-depth=4 / limit-tu=4 / rdoq-level=2 / dynamic-rd=0.00 / no-ssim-rd / signhide / no-tskip / nr-intra=0 / nr-inter=0 / no-constrained-intra / no-strong-intra-smoothing / max-merge=4 / limit-refs=1 / limit-modes / me=3 / subme=7 / merange=57 / temporal-mvp / weightp / no-weightb / no-analyze-src-pics / deblock=-2:-3 / no-sao / no-sao-non-deblock / rd=6 / no-early-skip / rskip / no-fast-intra / no-tskip-fast / no-cu-lossless / no-b-intra / no-splitrd-skip / rdpenalty=0 / psy-rd=2.00 / psy-rdoq=1.00 / no-rd-refine / no-lossless / cbqpoffs=0 / crqpoffs=0 / rc=crf / crf=17.5 / qcomp=0.60 / qpstep=4 / stats-write=0 / stats-read=0 / ipratio=1.40 / pbratio=1.30 / aq-mode=1 / aq-strength=1.00 / cutree / zone-count=0 / no-strict-cbr / qg-size=64 / no-rc-grain / qpmax=69 / qpmin=5 / no-const-vbv / sar=0 / overscan=0 / videoformat=5 / range=0 / colorprim=2 / transfer=2 / colormatrix=2 / chromaloc=0 / display-window=0 / max-cll=0,0 / min-luma=0 / max-luma=1023 / log2-max-poc-lsb=8 / vui-timing-info / vui-hrd-info / slices=1 / no-opt-qp-pps / no-opt-ref-list-length-pps / no-multi-pass-opt-rps / scenecut-bias=0.05 / no-opt-cu-delta-qp / no-aq-motion / no-hdr / no-hdr-opt / no-dhdr10-opt / no-idr-recovery-sei / analysis-reuse-level=5 / scale-factor=0 / refine-intra=0 / refine-inter=0 / refine-mv=0 / no-limit-sao / ctu-info=0 / no-lowpass-dct / refine-mv-type=0 / copy-pic=1 / max-ausize-factor=1.0 / no-dynamic-refine / no-single-sei
Language : Russian
Default : Yes
Forced : No

Audio #1
ID : 2
Format : AC-3
Format/Info : Audio Coding 3
Codec ID : A_AC3
Duration : 1 h 33 min
Bit rate mode : Constant
Bit rate : 448 kb/s
Channel(s) : 6 channels
Channel positions : Front: L C R, Side: L R, LFE
Sampling rate : 48.0 kHz
Frame rate : 31.250 FPS (1536 SPF)
Bit depth : 16 bits
Compression mode : Lossy
Stream size : 301 MiB (6%)
Title : Озвучено студією Омікрон на замовлення hurtom.com
Language : Ukrainian
Service kind : Complete Main
Default : Yes
Forced : No

Audio #2
ID : 3
Format : AC-3
Format/Info : Audio Coding 3
Codec ID : A_AC3
Duration : 1 h 33 min
Bit rate mode : Constant
Bit rate : 448 kb/s
Channel(s) : 6 channels
Channel positions : Front: L C R, Side: L R, LFE
Sampling rate : 48.0 kHz
Frame rate : 31.250 FPS (1536 SPF)
Bit depth : 16 bits
Compression mode : Lossy
Stream size : 301 MiB (6%)
Title : Original
Language : English
Service kind : Complete Main
Default : No
Forced : No

Text
ID : 4
Format : UTF-8
Codec ID : S_TEXT/UTF8
Codec ID/Info : UTF-8 Plain Text
Duration : 1 h 33 min
Bit rate : 31 b/s
Count of elements : 855
Stream size : 21.6 KiB (0%)
Title : Original
Language : English
Default : No
Forced : No

Menu
00:00:00.000 : en:00:00:00.000
00:04:26.057 : en:00:04:26.057
00:09:28.943 : en:00:09:28.943
00:13:23.761 : en:00:13:23.761
00:18:49.586 : en:00:18:49.586
00:23:29.741 : en:00:23:29.741
00:26:30.338 : en:00:26:30.338
00:31:07.156 : en:00:31:07.156
00:35:10.399 : en:00:35:10.399
00:39:53.307 : en:00:39:53.307
00:44:19.114 : en:00:44:19.114
00:48:53.055 : en:00:48:53.055
00:52:21.346 : en:00:52:21.346
00:56:24.672 : en:00:56:24.672
00:59:58.094 : en:00:59:58.094
01:04:53.222 : en:01:04:53.222
01:08:52.461 : en:01:08:52.461
01:12:59.708 : en:01:12:59.708
01:17:48.288 : en:01:17:48.288
01:26:46.993 : en:01:26:46.993
Скріншоти



Джерело:
Особиста оцінка: 0 - не дивився


Авторський реліз (завантажувати можна без реєстрації)
 Трекер:    Зареєстрований   

Завантажити / скачати мультфільм українською



відео для новачків



 Зареєстрований:   2018-05-25 16:51
 Розмір:   5.26 GB 
 Оцінка мультфільму:   10/10 (Голосів: 9)
   
Інші релізи
   Пісня моря / Song of the Sea (2014) 1080p H.265 Ukr/Eng | Sub 2xUkr/Eng -Star-Lord-  7 / 0   6.39 GB   2020-10-20 01:38 
   Пісня моря / Song of the Sea (2014) AVC Ukr/Eng | sub Eng staf777  21 / 0   1.93 GB   2019-06-03 15:09 
   Пісня моря / Song of the Sea (2014) Remux Ukr/Eng | sub Ukr/Eng Omikron  4 / 0   25.95 GB   2015-05-06 21:03 
   Пісня моря / Song of the Sea (2014) 1080p Ukr/Eng | sub Ukr/Eng Omikron  11 / 0   7.82 GB   2015-05-06 20:51 
   Пісня моря / Song of the Sea (2014) Omikron  7 / 0   1.45 GB   2015-05-02 20:40 
   Пісня моря / Song of the Sea (2014) 720p Ukr/Eng | sub Eng Omikron  19 / 0   2.34 GB   2015-05-02 20:39 
   Пісня моря / Song of the Sea (2014) 1080p Eng | Sub Ukr Gedet  2 / 0   4.37 GB   2015-03-24 21:46 
   Пісня моря / Song of the Sea (2014) 720p-mini Eng | Sub Ukr Gedet  1 / 0   2.65 GB   2015-03-24 21:44 
   Пісня моря / Song of the Sea (2014) Eng | sub Ukr химерка  0 / 0   1.41 GB   2015-03-23 10:01 
Ваш часовий пояс: GMT + 2 Години

Нова тема   Відповісти