Гаррі Поттер і таємна кімната / Harry Potter and the Chamber of Secrets (2002) 1080p [Open Matte] 2xUkr/Eng | Sub Eng

Нові коментарі

Нова тема   Відповісти
Автор Повідомлення
Anonymous 







2018-05-24 22:12  
Гаррі Поттер і таємна кімната / Harry Potter and the Chamber of Secrets (2002) 1080p [Open Matte] 2xUkr/Eng | Sub Eng

Гаррі Поттер і таємна кімната / Harry Potter and the Chamber of Secrets (2002) 1080p [Open Matte] 2xUkr/Eng | Sub Eng
Українські постери від Gelios'а та hellforces:





Жанр: пригодницький, сімейний, фентезі
Країна: Велика Британія, США, Німеччина



Кінокомпанія: 1492 Pictures, Heyday Films, MIRACLE Productions GmbH & Co. KG
Режисер: Кріс Коламбус
Актори: Деніел Редкліфф, Руперт Ґрінт, Емма Вотсон, Річард Ґріффітс, Фіона Шоу, Том Фелтон, Річард Гарріс, Роббі Колтрейн, Алан Рікмен, Меґґі Сміт, Бонні Райт, Джеймс Фелпс, Олівер Фелпс

Сюжет:
Гаррі Поттер переходить на другий курс Школи Магії і Чарів Гоґвортс. Ельф Доббі попереджає Гаррі про небезпеку, яка чекає його там, і просить більше не повертатися в Гоґвортс. Гаррі не слідує пораді ельфа і стає свідком страшних подій, що розгортаються в школі. Один за іншим, мешканці школи виявляються під впливом злих чарів, що перетворюють їх у закляклі статуї. А Гаррі весь цей час чує зловісний голос, який, здавалося б, йде з нізвідки. Незабаром учні довідаються про існування страшної Таємної кімнати, відкрити яку в змозі тільки єдиний спадкоємець Салазара Слизерина. Усі думають, що Таємну кімнату відкрив саме Гаррі і звільнив ув’язнений у ній Жах, адже справа в тому, що Поттер розуміє змій і вміє говорити на їхній мові. Гаррі Поттер – перселмовець! А саме таким і був знаменитий Слизерин.


Тривалість: 02:40:54
Якість: 1080p [Open Matte] [Amazon Video]
Відео:
кодек:
розмір кадру: 1920 x 1080
бітрейт: 11,1 Мб/с

Аудіо # 1:
мова: українська
переклад: багатоголосий закадровий
кодек: 2.0
бітрейт: 192 кб/с
Інформація про озвучення

Ролі озвучили: Євген Нищук, Наталя Задніпровська, Юрій Коваленко та Олесь Гімбаржевський.
Аудіо # 2:
мова: українська
переклад: багатоголосий закадровий
кодек: 2.0
бітрейт: 192 кб/с
Інформація про озвучення
Ролі озвучили: Павло Скороходько, Михайло Жонін, Юлія Перенчук, Дмитро Завадський, Лідія Муращенко, Андрій Самінін, Володимир Терещук, Євген Пашин, Анатолій Пашнін та інші.

Фільм озвучено творчим об’єднанням «Дія» на замовлення Нового каналу.
Аудіо # 3:
мова: англійська
переклад: оригінал
кодек: E- 5.1
бітрейт: 640 кб/с

Субтитри:
мова: англійська
тип: програмні (м'які)
формат: *.srt
Info

General
Unique ID : 210095880606390266715559129051931610807 (0x9E0EFEA8EF0DAB14B0461F8958880EB7)
Format :
Format version : Version 4 / Version 2
File size : 13.6 GiB
Duration : 2 h 40 min
Overall bit rate mode : Variable
Overall bit rate : 12.1 Mb/s
Movie name : Гаррі Поттер і таємна кімната / Harry Potter and the Chamber of Secrets (2002) [Open Matte] [Amazon] 1080p [2xUkr.Eng Sub.Eng] [Hurtom]
Encoded date : UTC 2018-05-24 19:48:10
Writing application : v21.0.0 ('Tardigrades Will Inherit The Earth') 64-bit
Writing library : libebml v1.3.5 + v1.4.8
Cover : Yes
Attachments : Cover.jpg

Video
ID : 1
Format : AVC
Format/Info : Advanced Video Codec
Format profile : [email protected]
Format settings : CABAC / 4 Ref Frames
Format settings, CABAC : Yes
Format settings, RefFrames : 4 frames
Codec ID : V_MPEG4/ISO/AVC
Duration : 2 h 40 min
Bit rate mode : Variable
Bit rate : 11.1 Mb/s
Maximum bit rate : 15.0 Mb/s
Width : 1 920 pixels
Height : 1 080 pixels
Display aspect ratio : 16:9
Frame rate mode : Constant
Frame rate : 23.976 (24000/1001) FPS
Color space : YUV
Chroma subsampling : 4:2:0
Bit depth : 8 bits
Scan type : Progressive
Bits/(Pixel*Frame) : 0.224
Stream size : 12.5 GiB (92%)
Title : Harry Potter and the Chamber of Secrets (2002) [Open Matte] [Amazon] 1080p [2xUkr.Eng Sub.Eng] [Hurtom]
Language : English
Default : Yes
Forced : No
Color range : Limited
Color primaries : BT.709
Transfer characteristics : BT.709
Matrix coefficients : BT.709

Audio #1
ID : 2
Format : AC-3
Format/Info : Audio Coding 3
Codec ID : A_AC3
Duration : 2 h 40 min
Bit rate mode : Constant
Bit rate : 192 kb/s
Channel(s) : 2 channels
Channel positions : Front: L R
Sampling rate : 48.0 kHz
Frame rate : 31.250 FPS (1536 SPF)
Bit depth : 16 bits
Compression mode : Lossy
Stream size : 221 MiB (2%)
Title : MVO | 1+1 | 2.0 | 192 kbps
Language : Ukrainian
Service kind : Complete Main
Default : Yes
Forced : No

Audio #2
ID : 3
Format : AC-3
Format/Info : Audio Coding 3
Codec ID : A_AC3
Duration : 2 h 40 min
Bit rate mode : Constant
Bit rate : 192 kb/s
Channel(s) : 2 channels
Channel positions : Front: L R
Sampling rate : 48.0 kHz
Frame rate : 31.250 FPS (1536 SPF)
Bit depth : 16 bits
Compression mode : Lossy
Stream size : 221 MiB (2%)
Title : MVO | Novy Kanal | 2.0 | 192 kbps
Language : Ukrainian
Service kind : Complete Main
Default : No
Forced : No

Audio #3
ID : 4
Format : E-AC-3
Format/Info : Enhanced Audio Coding 3
Codec ID : A_EAC3
Duration : 2 h 40 min
Bit rate mode : Constant
Bit rate : 640 kb/s
Channel(s) : 6 channels
Channel positions : Front: L C R, Side: L R, LFE
Sampling rate : 48.0 kHz
Frame rate : 187.500 FPS (256 SPF)
Compression mode : Lossy
Stream size : 737 MiB (5%)
Title : Original
Language : English
Service kind : Complete Main
Default : No
Forced : No

Text
ID : 5
Format : UTF-8
Codec ID : S_TEXT/UTF8
Codec ID/Info : UTF-8 Plain Text
Duration : 2 h 39 min
Bit rate : 49 b/s
Count of elements : 2055
Stream size : 58.1 KiB (0%)
Title : Original (SDH)
Language : English
Default : No
Forced : No
Скріншоти












Порівняння Blu-ray з цим Open Matte
Джерело: &
Особиста оцінка: 0 - не дивився
п.??? за запис Аудіо №1
п.xslim за запис Аудіо №2
п.Gelios за опис та доріжки.

Інші фільми із серії про Гаррі Поттера.


PG - рейтинг стрічки, встановлений Американською асоціацією кінокомпаній

MPAA, англ. Motion Picture Association of America - Американська асоціація кінокомпаній

Рейтинг PG — Parental guidance suggested
Дітям рекомендується дивитися фільм разом з батьками.

Рекомендується присутність батьків. Деякий матеріал, можливо, не підходить для дітей. Даний рейтинг показує, що оцінений фільм може містити деякі сцени, проглядання яких маленькими дітьми може не сподобатися їх батькам. Матеріал, який може бути присутнім у фільмі, повинен бути пояснений дітям перш, ніж їм дозволять відвідати фільм. Явні сексуальні сцени і сцени вживання наркотиків відсутні; нагота, якщо й присутня, то тільки дуже обмежено, жах і насильство не перевищують помірного рівня.


Не забуваємо дякувати!




Срібний реліз (на рейтинг впливає 50% завантаженого)
 Трекер:    Зареєстрований   

Завантажити / скачати фільм українською



відео для новачків



 Зареєстрований:   2018-05-24 22:32
 Розмір:   13.65 GB 
 Оцінка фільму:   9.9/10 (Голосів: 25)
   
neo3703 
Свій


З нами з: 12.05.10
Востаннє: 24.02.20
Повідомлень: 116

2018-05-26 01:17  
Точно таке співвідношення сторін у деяких IMAX версій фільмів )
0970288257 
Новенький


З нами з: 20.08.18
Востаннє: 18.01.20
Повідомлень: 1

2018-12-20 10:59  
дякую, чуваки, за вашу роботу!
zbabiak 
Новенький


З нами з: 17.01.18
Востаннє: 21.02.20
Повідомлень: 1

2019-01-16 17:50  
дякую паци вже рік користуюСя ваШИм сайтОм
Ваш часовий пояс: GMT + 2 Години

Нова тема   Відповісти