Циганка Аза (1987) AVC

Нові коментарі

Нова тема   Відповісти
Автор Повідомлення
Anonymous 







2018-05-24 19:53  
Циганка Аза (1987) AVC



Жанр: драма
Країна: Україна



Кінокомпанія: Кіностудія імені Олександра Довженка
Режисер: Григорій Кохан
Актори: Ляля Жемчужна, Олена Пономаренко, Ігор Крикунов, Олександр Бондаренко, Берта Хапава, Вікторас Шінкарюкас

Сюжет:
Циган Василь полюбив красуню Галю. Забув кочове життя, рідну матір і циганку Азу - і вирішив заради Галі залишитися в селі. Галя кидає коваля Пилипа і, не послухавши батька, виходить за Василя заміж. Але пройде час - Василь затужить за табором і почне просити вибачення в матері та Ази...


Тривалість: 01:30:40
Якість: AVC (запис з телеканалу ZIK HD)
Відео:
кодек:
розмір кадру: 720 х 536
бітрейт: 1487 кб/с

Аудіо:
мова: українська
переклад: оригінал
кодек: 2.0
бітрейт: 192 кб/с
Info
General
Unique ID : 250615014224871774814303657696284919297 (0xBC8AB22FBC0B2DCD824AA1CD7F184601)
Complete name : Циганка Аза (1987) [Hurtom].
Format :
Format version : Version 4 / Version 2
File size : 1.06 GiB
Duration : 1 h 30 min
Overall bit rate : 1 680 kb/s
Encoded date : UTC 2018-07-08 19:55:48
Writing application : v9.8.0 ('Kuglblids') 64bit
Writing library : libebml v1.3.4 + v1.4.5

Video
ID : 1
Format : AVC
Format/Info : Advanced Video Codec
Format profile : [email protected]
Format settings : CABAC / 8 Ref Frames
Format settings, CABAC : Yes
Format settings, ReFrames : 8 frames
Codec ID : V_MPEG4/ISO/AVC
Duration : 1 h 30 min
Bit rate : 1 487 kb/s
Width : 720 pixels
Height : 536 pixels
Display aspect ratio : 4:3
Frame rate mode : Constant
Frame rate : 25.000 FPS
Color space : YUV
Chroma subsampling : 4:2:0
Bit depth : 8 bits
Scan type : Progressive
Bits/(Pixel*Frame) : 0.154
Stream size : 964 MiB (88%)
Writing library : core 146 r2538 121396c
Encoding settings : cabac=1 / ref=8 / deblock=1:-1:-1 / analyse=0x3:0x133 / me=umh / subme=7 / psy=1 / psy_rd=1.00:0.10 / mixed_ref=1 / me_range=16 / chroma_me=1 / trellis=2 / 8x8dct=1 / cqm=0 / deadzone=21,11 / fast_pskip=0 / chroma_qp_offset=-3 / threads=6 / lookahead_threads=1 / sliced_threads=0 / nr=0 / decimate=1 / interlaced=0 / bluray_compat=0 / constrained_intra=0 / bframes=3 / b_pyramid=2 / b_adapt=2 / b_bias=0 / direct=3 / weightb=1 / open_gop=0 / weightp=2 / keyint=250 / keyint_min=25 / scenecut=40 / intra_refresh=0 / rc_lookahead=50 / rc=crf / mbtree=1 / crf=18.0 / qcomp=0.60 / qpmin=0 / qpmax=69 / qpstep=4 / ip_ratio=1.40 / aq=1:1.00
Default : Yes
Forced : No

Audio
ID : 2
Format : AC-3
Format/Info : Audio Coding 3
Codec ID : A_AC3
Duration : 1 h 30 min
Bit rate mode : Constant
Bit rate : 192 kb/s
Channel(s) : 2 channels
Channel positions : Front: L R
Sampling rate : 48.0 kHz
Frame rate : 31.250 FPS (1536 SPF)
Bit depth : 16 bits
Compression mode : Lossy
Stream size : 125 MiB (11%)
Language : Ukrainian
Service kind : Complete Main
Default : Yes
Forced : No
Скріншоти






Джерело:


Золотий реліз (завантажене не впливає на рейтинг)
 Трекер:    Зареєстрований   

Завантажити / скачати український фільм



відео для новачків



 Зареєстрований:   2018-07-08 23:15
 Розмір:   1.06 GB 
 Оцінка фільму:   9.1/10 (Голосів: 10)
   
igor911 
Модератор відео


З нами з: 18.01.08
Востаннє: 11.07.20
Повідомлень: 14872

2018-05-24 19:57  
Цитата:
розмір кадру: 720 х 520

нестандартний розмір кадру, може не читатись на "залізних" програвачах. По стандарту треба, щоб ширина та висота кадру були кратні 16.

Anonymous 







2018-05-24 19:58  
В мережі є двд-ріп, але з кацапським відеорядом, тому на спільному засіданні Wide grin було вирішено викласти цей запис навіть попри невеличкі нюанси, а не прикручувати звук до двд-ріпу.
igor911 
Модератор відео


З нами з: 18.01.08
Востаннє: 11.07.20
Повідомлень: 14872

2018-05-24 20:15  
Anonymous написано:
але з кацапським відеорядом

це зрозуміло, я говорю, що при виготовленні ріпа (з запису ТБ в даному випадку), бажано дотримуватись стандартів.

Додано через 3 хвилини 18 секунд:

в даному випадку Electroz'у треба було обрати розмір кадру 720х512 або 704х512 (дивлячись де буде менший відсоток відхилення від оригінального AR)/

Anonymous 







2018-05-24 20:22  
igor911 написано:
це зрозуміло, я говорю, що при виготовленні ріпа (з запису ТБ в даному випадку), бажано дотримуватись стандартів.

Я не відповідав на Ваш пост. Коли писав своє повідомлення Вашого ще не бачив.
igor911 написано:
в даному випадку Electroz'у треба було обрати розмір кадру 720х512 або 704х512 (дивлячись де буде менший відсоток відхилення від оригінального AR)/

То тепер як бути? Попросити переробити чи вже хай так буде?

igor911 
Модератор відео


З нами з: 18.01.08
Востаннє: 11.07.20
Повідомлень: 14872

2018-05-24 20:24  
За бажанням, це була порада на майбутнє.
Anonymous 







2018-05-28 14:13  
додав рейтинг imdb
Anonymous 







2018-07-08 21:57  
Торент змінено.
Тепер відео без логотипу і рухомого рядка. Також зображення є трошки більшим (ЗІК на відміну від Телевсесвіту не обрізав картинку)

igor911 
Модератор відео


З нами з: 18.01.08
Востаннє: 11.07.20
Повідомлень: 14872

2018-07-08 22:16  
Цитата:
кодек: h264
.avi 1.07 GB

тут дійсно ? бажано додати звіт Info

Anonymous 







2018-07-08 22:35  
igor911 написано:
бажано додати звіт Info
тиць
General
Complete name : Циганка Аза (1987) [Hurtom].avi
Format : AVI
Format/Info : Audio Video Interleave
File size : 1.07 GiB
Duration : 1 h 30 min
Overall bit rate : 1 688 kb/s
Writing application : VirtualDubMod 1.5.10.2 (build 2540/release)
Writing library : VirtualDubMod build 2540/release

Video
ID : 0
Format : AVC
Format/Info : Advanced Video Codec
Format profile : [email protected]
Format settings : CABAC / 8 Ref Frames
Format settings, CABAC : Yes
Format settings, ReFrames : 8 frames
Codec ID : h264
Duration : 1 h 30 min
Bit rate : 1 487 kb/s
Width : 720 pixels
Height : 536 pixels
Display aspect ratio : 4:3
Frame rate : 25.000 FPS
Color space : YUV
Chroma subsampling : 4:2:0
Bit depth : 8 bits
Scan type : Progressive
Bits/(Pixel*Frame) : 0.154
Stream size : 964 MiB (88%)
Writing library : core 146 r2538 121396c
Encoding settings : cabac=1 / ref=8 / deblock=1:-1:-1 / analyse=0x3:0x133 / me=umh / subme=7 / psy=1 / psy_rd=1.00:0.10 / mixed_ref=1 / me_range=16 / chroma_me=1 / trellis=2 / 8x8dct=1 / cqm=0 / deadzone=21,11 / fast_pskip=0 / chroma_qp_offset=-3 / threads=6 / lookahead_threads=1 / sliced_threads=0 / nr=0 / decimate=1 / interlaced=0 / bluray_compat=0 / constrained_intra=0 / bframes=3 / b_pyramid=2 / b_adapt=2 / b_bias=0 / direct=3 / weightb=1 / open_gop=0 / weightp=2 / keyint=250 / keyint_min=25 / scenecut=40 / intra_refresh=0 / rc_lookahead=50 / rc=crf / mbtree=1 / crf=18.0 / qcomp=0.60 / qpmin=0 / qpmax=69 / qpstep=4 / ip_ratio=1.40 / aq=1:1.00

Audio
ID : 1
Format : AC-3
Format/Info : Audio Coding 3
Codec ID : 2000
Duration : 1 h 30 min
Bit rate mode : Constant
Bit rate : 192 kb/s
Channel(s) : 2 channels
Channel positions : Front: L R
Sampling rate : 48.0 kHz
Frame rate : 31.250 FPS (1536 SPF)
Bit depth : 16 bits
Compression mode : Lossy
Stream size : 125 MiB (11%)
Alignment : Split accross interleaves
Interleave, duration : 40 ms (1.00 video frame)
Interleave, preload duration : 500 ms
Service kind : Complete Main

igor911 
Модератор відео


З нами з: 18.01.08
Востаннє: 11.07.20
Повідомлень: 14872

2018-07-08 22:37  
а навіщо AVC пакувати в avi?
Anonymous 







2018-07-08 22:41  
igor911 написано:
а навіщо AVC пакувати в avi?

Не знаю, просто при кодуванні вибрав цей кодек для проби.
Це не дозволено? Переробити? У що запакувати? Чи -ом ріпнути? Як про мене, то вийшло краще ніж і менший розмір, а контейнер не відіграє особливої ролі... чи не так?

igor911 
Модератор відео


З нами з: 18.01.08
Востаннє: 11.07.20
Повідомлень: 14872

2018-07-08 22:46  
просто краще пакувати у або на крайній випадок в mp4, а в старий аві немає сенсу. Перекодовувати нічого не треба, просто закинь файл в mkvtoolnix і збережи в .
Anonymous 







2018-07-08 23:15  
igor911 написано:
просто краще пакувати у або на крайній випадок в mp4

Не проблема, зараз перероблю
Торент зняв з реєстрації

Додано через 21 хвилину 19 секунд:

Все, зробив

601сан 
Поважний учасник


З нами з: 22.05.12
Востаннє: 11.07.20
Повідомлень: 234

2020-06-30 00:11  
Прихильникам УКРАЇНСЬКОГО КІНО раджу до перегляду.
Прихильникам "Квартального кіно" не раджу не "здолаєте"
Класика 10/10.Дякую.

Ваш часовий пояс: GMT + 2 Години

Нова тема   Відповісти