Термінал / Terminal (2018) 1080p H.265 Ukr/Eng | Sub Eng

Нові коментарі

Нова тема   Відповісти
Автор Повідомлення
ukr_anonymous 
Попереджень: 1
Попереджень: 1 


З нами з: 16.04.18
Востаннє: 17.11.19
Повідомлень: 234

2018-05-24 09:49  
Термінал / Terminal (2018) 1080p H.265 Ukr/Eng | Sub Eng

Термінал / Terminal (2018) 1080p H.265 Ukr/Eng | Sub Eng

Жанр: драма, кримінал, трилер
Країна: США, Велика Британія, Гонконг, Угорщина, Ірландія



Кінокомпанія: Proton Cinema
Режисер: Вон Стайн
Актори: Марґо Роббі, Саймон Пег, Майк Майєрс, Макс Айронс, Декстер Флетчер, Меттью Льюїс, Катаріна Час, Нік Моран, Томас Турґус, Джордан Данн та інші

Сюжет:
Двоє найманих вбивць отримують завдання. Ця справа може суттєво збагатити їх, проте пов'язана з неабияким ризиком. Офіціантка з місцевого кафе Енні (Марґо Роббі) береться допомагати кілерам. І невдовзі стає зрозуміло, що вона вплутана у цю справу не менше, ніж самі хлопці. Стривайте, а ця дівчина точно офіціантка? Вона вміло змінює образи і майстерно маніпулює кожним чоловіком, який трапляється на її шляху.


Тривалість: 01:35:43
Якість:
Відео:
кодек: H.265 (HEVC)
розмір кадру: 1920 x 800
бітрейт: 7 365 кб/с
бітова глибина: 10 біт
Увага! Перед завантаженням переконайтесь, що ваш пристрій відтворення (та/або ПЗ) підтримують H.265 (HEVC)

Аудіо # 1:
мова: українська
переклад: професійний дубльований |
кодек: 2.0
бітрейт: 192 кб/с

Аудіо # 2:
мова: англійська
переклад: оригінал
кодек: E- 5.1
бітрейт: 640 кб/с

Субтитри # 1:
мова: українська (форсовані)
тип: програмні (м'які)
формат: *.srt

Субтитри # 2-3:
мова: англійська (повні, SHD)
тип: програмні (м'які)
формат: *.srt
Info
General
Unique ID : 48615405115833415695363944132009015821 (0x2492FC87CC3CAE1D984C0AF431583A0D)
Complete name : E:\video\Terminal (2018) BBRip 1080p H.265 [UKR_ENG].
Format :
Format version : Version 4 / Version 2
File size : 5.48 GiB
Duration : 1 h 35 min
Overall bit rate : 8 198 kb/s
Movie name : Terminal (2018)
Encoded date : UTC 2018-07-06 11:08:14
Writing application : v22.0.0 ('At The End Of The World') 64-bit
Writing library : libebml v1.3.5 + v1.4.8
Cover : Yes
Attachments : Cover.jpg

Video
ID : 1
Format : HEVC
Format/Info : High Efficiency Video Coding
Format profile : Main [email protected]@Main
Codec ID : V_MPEGH/ISO/HEVC
Duration : 1 h 35 min
Bit rate : 7 365 kb/s
Width : 1 920 pixels
Height : 800 pixels
Display aspect ratio : 2.40:1
Frame rate mode : Constant
Frame rate : 23.976 (24000/1001) FPS
Color space : YUV
Chroma subsampling : 4:2:0
Bit depth : 10 bits
Bits/(Pixel*Frame) : 0.200
Stream size : 4.92 GiB (90%)
Writing library : x265 2.8+23-656b5b442f0b:[Windows][GCC 6.3.0][64 bit] 10bit
Encoding settings : cpuid=1111039 / frame-threads=16 / numa-pools=16,16 / wpp / no-pmode / no-pme / no-psnr / no-ssim / log-level=2 / input-csp=1 / input-res=1920x800 / interlace=0 / total-frames=137695 / level-idc=51 / high-tier=0 / uhd-bd=0 / ref=5 / no-allow-non-conformance / no-repeat-headers / annexb / no-aud / no-hrd / info / hash=0 / no-temporal-layers / no-open-gop / min-keyint=1 / keyint=250 / gop-lookahead=0 / bframes=8 / b-adapt=2 / b-pyramid / bframe-bias=0 / rc-lookahead=150 / lookahead-slices=4 / scenecut=40 / radl=0 / no-intra-refresh / ctu=32 / min-cu-size=8 / no-rect / no-amp / max-tu-size=32 / tu-inter-depth=4 / tu-intra-depth=4 / limit-tu=4 / rdoq-level=1 / dynamic-rd=0.00 / no-ssim-rd / signhide / no-tskip / nr-intra=0 / nr-inter=0 / no-constrained-intra / no-strong-intra-smoothing / max-merge=5 / limit-refs=3 / limit-modes / me=3 / subme=7 / merange=57 / temporal-mvp / weightp / no-weightb / no-analyze-src-pics / deblock=-2:-2 / no-sao / no-sao-non-deblock / rd=4 / no-early-skip / rskip / no-fast-intra / no-tskip-fast / no-cu-lossless / b-intra / no-splitrd-skip / rdpenalty=0 / psy-rd=1.50 / psy-rdoq=5.00 / no-rd-refine / no-lossless / cbqpoffs=0 / crqpoffs=0 / rc=abr / bitrate=7366 / qcomp=0.60 / qpstep=4 / stats-write=0 / stats-read=2 / cplxblur=20.0 / qblur=0.5 / ipratio=1.40 / pbratio=1.20 / aq-mode=1 / aq-strength=1.00 / cutree / zone-count=0 / no-strict-cbr / qg-size=32 / no-rc-grain / qpmax=69 / qpmin=0 / no-const-vbv / sar=1 / overscan=0 / videoformat=5 / range=0 / colorprim=1 / transfer=1 / colormatrix=1 / chromaloc=0 / display-window=0 / max-cll=0,0 / min-luma=0 / max-luma=1023 / log2-max-poc-lsb=8 / vui-timing-info / vui-hrd-info / slices=1 / no-opt-qp-pps / no-opt-ref-list-length-pps / no-multi-pass-opt-rps / scenecut-bias=0.05 / no-opt-cu-delta-qp / no-aq-motion / no-hdr / no-hdr-opt / no-dhdr10-opt / no-idr-recovery-sei / analysis-reuse-level=5 / scale-factor=0 / refine-intra=0 / refine-inter=0 / refine-mv=0 / no-limit-sao / ctu-info=0 / no-lowpass-dct / refine-mv-type=0 / copy-pic=1 / max-ausize-factor=1.0 / no-dynamic-refine / no-single-sei
Default : Yes
Forced : No
Color range : Limited
Color primaries : BT.709
Transfer characteristics : BT.709
Matrix coefficients : BT.709

Audio #1
ID : 2
Format : AC-3
Format/Info : Audio Coding 3
Codec ID : A_AC3
Duration : 1 h 35 min
Bit rate mode : Constant
Bit rate : 192 kb/s
Channel(s) : 2 channels
Channel positions : Front: L R
Sampling rate : 48.0 kHz
Frame rate : 31.250 FPS (1536 SPF)
Bit depth : 16 bits
Compression mode : Lossy
Delay relative to video : 11 s 0 ms
Stream size : 131 MiB (2%)
Title : Dub [AAA-sound, Line] 2.0 192 Kbps
Language : Ukrainian
Service kind : Complete Main
Default : Yes
Forced : Yes

Audio #2
ID : 3
Format : E-AC-3
Format/Info : Enhanced Audio Coding 3
Codec ID : A_EAC3
Duration : 1 h 35 min
Bit rate mode : Constant
Bit rate : 640 kb/s
Channel(s) : 6 channels
Channel positions : Front: L C R, Side: L R, LFE
Sampling rate : 48.0 kHz
Frame rate : 187.500 FPS (256 SPF)
Compression mode : Lossy
Delay relative to video : 11 s 0 ms
Stream size : 437 MiB (8%)
Title : Original, E- 5.1 640 Kbps
Language : English
Service kind : Complete Main
Default : No
Forced : No

Text #1
ID : 4
Format : UTF-8
Codec ID : S_TEXT/UTF8
Codec ID/Info : UTF-8 Plain Text
Duration : 1 h 24 min
Bit rate : 0 b/s
Count of elements : 13
Stream size : 362 Bytes (0%)
Title : Ukr forced
Language : Ukrainian
Default : No
Forced : Yes

Text #2
ID : 5
Format : UTF-8
Codec ID : S_TEXT/UTF8
Codec ID/Info : UTF-8 Plain Text
Duration : 1 h 33 min
Bit rate : 67 b/s
Count of elements : 1557
Stream size : 46.8 KiB (0%)
Language : English
Default : No
Forced : No

Text #3
ID : 6
Format : UTF-8
Codec ID : S_TEXT/UTF8
Codec ID/Info : UTF-8 Plain Text
Duration : 1 h 34 min
Bit rate : 70 b/s
Count of elements : 1651
Stream size : 48.8 KiB (0%)
Title : SDH
Language : English
Default : No
Forced : No

Menu
00:00:00.000 : en:1
00:09:49.798 : en:2
00:21:31.666 : en:3
00:34:19.141 : en:4
00:44:03.934 : en:5
00:58:29.174 : en:6
01:11:17.192 : en:7
01:21:53.745 : en:8
01:32:33.968 : en:9
Скріншоти



Джерело:
Особиста оцінка: 0 - не дивився


ЗАЛИШАЙТЕСЬ ЯКОМОГА ДОВШЕ НА РОЗДАЧІ!
ЗАВАНТАЖИВ САМ - ДАЙ ЗАВАНТАЖИТИ ІНШИМ


 Трекер:    Зареєстрований   

Завантажити / скачати фільм українською



відео для новачків



 Зареєстрований:   2018-07-06 13:38
 Розмір:   5.48 GB 
 Оцінка фільму:   7.9/10 (Голосів: 14)
   
Інші релізи
   Термінал / Terminal (2018) 1080p H.265 2xUkr/Eng | Sub Eng -Star-Lord-  2 / 0   5.61 GB   2019-06-21 22:05 
   Термінал / Terminal (2018) 1080p 2xUkr/Eng | Sub Eng staf777  9 / 0   7.59 GB   2019-06-21 19:47 
   Термінал / Terminal (2018) 2xUkr igor911  10 / 0   1.46 GB   2019-06-21 18:34 
   Термінал / Terminal (2018) 720p 2xUkr/Eng | Sub Eng igor911  4 / 0   4.69 GB   2019-06-21 18:02 
   Термінал / Terminal (2018) AVC 2xUkr/Eng | Sub Eng uafilm.tv  3 / 0   2.05 GB   2019-06-17 20:05 
igor911 
Модератор відео


З нами з: 18.01.08
Востаннє: 12.12.19
Повідомлень: 13725

2018-05-24 09:55  
ukr_anonymous написано:

Це не , а .

Додано через 3 хвилини 27 секунд:

файл теж необхідно перейменувати, поки не вантажать.

ukr_anonymous 
Попереджень: 1
Попереджень: 1 


З нами з: 16.04.18
Востаннє: 17.11.19
Повідомлень: 234

2018-07-06 13:39  
Замінив відеоряд на кращий, з на

PaGaN 
Частий відвідувач


З нами з: 01.09.09
Востаннє: 29.11.19
Повідомлень: 29

2019-03-23 15:16  
Звук жахливий, більше 5 хв не витримав, почею на інший...
waldi-hurtom 
VIP


З нами з: 07.10.12
Востаннє: 11.12.19
Повідомлень: 1055

2019-04-02 21:44  
Тут не лише звук жахливий - геть усе!
Ваш часовий пояс: GMT + 2 Години

Нова тема   Відповісти