Небезпечний бізнес / Gringo (2018)

Нові коментарі

Нова тема   Відповісти
Автор Повідомлення
Anonymous 







2018-05-23 20:55  
Небезпечний бізнес / Gringo (2018)

Небезпечний бізнес / Gringo (2018)
Альтернативні та оригінальні постери:











Жанр: бойовик, драма, комедія, кримінальний
Країна: США, Австралія



Кінокомпанія: Amazon Studios, Blue-Tongue Films, Denver and Delilah Productions, Picrow
Режисер: Неш Едґертон / Nash Edgerton
Актори: Шарліз Терон / Charlize Theron, Джоел Едґертон / Joel Edgerton, Девід Ойелово / David Oyelowo, Тенді Ньютон / Thandie Newton, Башир Салагуддін / Bashir Salahuddin, Гленн Кубота / Glenn Kubota, Мелоні Діаз / Melonie Diaz, Аманда Сайфред / Amanda Seyfried, Гаррі Тредевей / Harry Treadaway, Тео Тапліц / Theo Taplitz, Юл Васкес / Yul Vazquez, Шарлто Коплі / Sharlto Copley, Алан Рак / Alan Ruck та інші

Сюжет:
Ґрінґо працює в одній з численних фармацевтичних компаній. Звичайний планктон. Його начальниця, довгонога блондинка з стервозним характером, відправляє його з секретною формулою медичної марихуани в Мексику, яка принесе власникам мільярди. Він навіть не здогадується, в яке кримінальне середовище незабаром потрапить. Після прибуття Ґрінґо повинен зв'язатися з місцевими наркобаронами, міжнародними дилерами і Адміністрацією з контролю над наркотиками США. Після цього Ґрінґо тільки і намагається вижити в цій країні...
Офіційні українські трейлери:




Рейтинг MPAA: R - особам до 17 років обов'язкова присутність батьків або дорослого опікуна
Вікова категорія: 16+

Тривалість: 01:50:38
Якість:
Відео:
кодек:
розмір кадру: 720х304
бітрейт: 1433 кб/с

Аудіо:
мова: українська
переклад: професійний дубльований | студія Postmodern
кодек: 5.1
бітрейт: 448 кб/с
Інформація про дубляж
Переклад: Олексій Здражевський
Режисер дубляжу: Ольга Фокіна
Звукорежисер: Денис Подляський
Звукорежисер перезапису: Юрій Антонов
Ролі дублювали: Гарольд / Девід ОйеловоДмитро Гаврилов,
Річард / Джоел ЕдґертонРоман Чорний,
Елейн / Шарліз ТеронНаталя Ярошенко,
Мітч / Шарлто КопліАндрій Твердак,
Сані / Аманда СайфредЮлія Перенчук
Майлз / Гаррі Тредевей – Володимир Канівець,
Анхель / Юл Васкес – Олександр Шевчук,
а також: Олесь Гімбаржевський, Вікторія Москаленко, Олександр Ігнатуша та інші

Дубльовано студією Postmodern на замовлення "Вольга Україна".
Info
Код:
General
Complete name               : Gringo (2018) [Ukr] [Hurtom].avi
Format                      : AVI
Format/Info                 : Audio Video Interleave
File size                   : 1.46 GiB
Duration                    : 1 h 50 min
Overall bit rate            : 1 890 kb/s
Movie name                  : Небезпечний бізнес / Gringo (2018) [Ukr] [Hurtom]
Genre                       : бойовик, драма, комедія, кримінальний
Recorded date               : 30.05.2018
Writing application         : VirtualDubModUkr 1.5.10.2 (build 2542/release)
Writing library             : VirtualDubMod build 2542/release
Comment                     : https://toloka.to/t90146

Video
ID                          : 0
Format                      : MPEG-4 Visual
Format profile              : Advanced [email protected]
Format settings             : BVOP1 / Custom Matrix
Format settings, BVOP       : 1
Format settings, QPel       : No
Format settings, GMC        : No warppoints
Format settings, Matrix     : Custom
Codec ID                    :
Codec ID/Hint               :
Duration                    : 1 h 50 min
Bit rate                    : 1 433 kb/s
Width                       : 720 pixels
Height                      : 304 pixels
Display aspect ratio        : 2.35:1
Frame rate                  : 23.976 (24000/1001) FPS
Color space                 : YUV
Chroma subsampling          : 4:2:0
Bit depth                   : 8 bits
Scan type                   : Progressive
Compression mode            : Lossy
Bits/(Pixel*Frame)          : 0.273
Stream size                 : 1.11 GiB (76%)
Writing library             : 73

Audio
ID                          : 1
Format                      : AC-3
Format/Info                 : Audio Coding 3
Codec ID                    : 2000
Duration                    : 1 h 50 min
Bit rate mode               : Constant
Bit rate                    : 448 kb/s
Channel(s)                  : 6 channels
Channel positions           : Front: L C R, Side: L R, LFE
Sampling rate               : 48.0 kHz
Frame rate                  : 31.250 FPS (1536 SPF)
Bit depth                   : 16 bits
Compression mode            : Lossy
Stream size                 : 355 MiB (24%)
Alignment                   : Split accross interleaves
Interleave, duration        : 42  ms (1.00 video frame)
Interleave, preload duratio : 500  ms
Title                       : UKR DUB [Postmodern, Hurtom]
Service kind                : Complete Main




Джерело: &
Подяка п.AngryBirdsUA та п.Hanway'ю за якісний український звук.

30.05.2018 реліз оновлено кращими відеорядом та звуком


 Трекер:    Зареєстрований   

Завантажити / скачати фільм українською



відео для новачків



 Зареєстрований:   2018-05-30 19:33
 Розмір:   1.46 GB 
 Оцінка фільму:   9/10 (Голосів: 80)
   
AngryBirdsUA 
Свій


З нами з: 24.02.10
Востаннє: 16.11.19
Повідомлень: 3147

2018-05-23 21:00  
ЗВІДКИ ЗВУК?
Anonymous 







2018-05-23 21:01  
iTunes з блубірда
AngryBirdsUA 
Свій


З нами з: 24.02.10
Востаннє: 16.11.19
Повідомлень: 3147

2018-05-23 21:06  
Є кращий
але не знаю чи варто поспцішати

don pedro 
Попереджень: 1
Попереджень: 1 


З нами з: 29.06.11
Востаннє: 17.11.19
Повідомлень: 14833

2018-05-26 13:14  
Непоганий фільм. Особливий плюс за Шарліз Терон, розкішну стерву, яка кохається на столі. А якщо серйозно, то є багато чудових сцен. Зокрема, це "викрадення" ГГ у Мексиці, навернення у віру та бос картелю-бітломан. Втім, фільм занадто вже неправдоподібний - людині так не може щастити. Загалом, заслуговує на свій рейтинг.
hitmanhunter 
Свій


З нами з: 15.09.16
Востаннє: 17.11.19
Повідомлень: 121

2018-05-27 20:56  
фільм хороший.
п.с. а "Gringo" це точно перекладається як "Небезпечний бізнес" ?))

ГАМК 
Забанено
Забанено


З нами з: 25.05.18
Востаннє: 29.05.18
Повідомлень: 58

2018-05-27 23:59  
AngryBirdsUA
Ви маєте кращий звук, а ми маємо дивитися з цим?
Який тоді сенc його пізніше викладати?

Electroz 
Відео Гуртом - підтримка та поширення
Відео Гуртом - підтримка та поширення


З нами з: 18.09.14
Востаннє: 17.11.19
Повідомлень: 3617

2018-05-28 10:59  
ГАМК
Бо тоді блюрею не було.

Ванько 
VIP


З нами з: 27.08.09
Востаннє: 16.11.19
Повідомлень: 409

2018-05-28 17:51  
Думав, що Шарлто Коплі тільки у Бломпампа знімається :-) Нормальний фільм.
Anonymous 







2018-05-30 19:41  
Реліз оновлено до 'а, також замінено звук на якісніший.
andriy_nv 
VIP


З нами з: 27.06.08
Востаннє: 16.11.19
Повідомлень: 945

2019-02-07 18:31  
один раз глянути можна
Ваш часовий пояс: GMT + 2 Години

Нова тема   Відповісти