Небезпечний бізнес / Gringo (2018) 1080p Ukr/Eng | Sub Eng

Нові коментарі

Нова тема   Відповісти
Автор Повідомлення
Anonymous 







2018-05-23 21:52  
Небезпечний бізнес / Gringo (2018) 1080p Ukr/Eng | Sub Eng

Небезпечний бізнес / Gringo (2018) 1080p Ukr/Eng | Sub Eng
Альтернативні та оригінальні постери:










Жанр: бойовик, драма, комедія, кримінальний
Країна: США, Австралія



Кінокомпанія: Amazon Studios, Blue-Tongue Films, Denver and Delilah Productions, Picrow
Режисер: Неш Едґертон / Nash Edgerton
Актори: Шарліз Терон / Charlize Theron, Джоел Едґертон / Joel Edgerton, Девід Ойелово / David Oyelowo, Тенді Ньютон / Thandie Newton, Башир Салагуддін / Bashir Salahuddin, Гленн Кубота / Glenn Kubota, Мелоні Діаз / Melonie Diaz, Аманда Сайфред / Amanda Seyfried, Гаррі Тредевей / Harry Treadaway, Тео Тапліц / Theo Taplitz, Юл Васкес / Yul Vazquez, Шарлто Коплі / Sharlto Copley, Алан Рак / Alan Ruck та інші

Сюжет:
Ґрінґо працює в одній з численних фармацевтичних компаній. Звичайний планктон. Його начальниця, довгонога блондинка з стервозним характером, відправляє його з секретною формулою медичної марихуани в Мексику, яка принесе власникам мільярди. Він навіть не здогадується, в яке кримінальне середовище незабаром потрапить. Після прибуття Ґрінґо повинен зв'язатися з місцевими наркобаронами, міжнародними дилерами і Адміністрацією з контролю над наркотиками США. Після цього Ґрінґо тільки і намагається вижити в цій країні...
Офіційні українські трейлери:




Рейтинг MPAA: R - особам до 17 років обов'язкова присутність батьків або дорослого опікуна
Вікова категорія: 16+

Тривалість: 01:50:38
Якість: 1080p
Відео:
кодек:
розмір кадру: 1920х804
бітрейт: 12 Мб/с

Аудіо # 1:
мова: українська
переклад: професійний дубльований | студія Postmodern
кодек: 5.1
бітрейт: 640 кб/с

Аудіо # 2:
мова: українська
переклад: професійний дубльований | студія Postmodern
кодек: 5.1
бітрейт: 1509 кб/с
примітка: українські доріжки однакові за змістом і відрізняються лише кодеками/бітрейтом
Інформація про дубляж
Переклад: Олексій Здражевський
Режисер дубляжу: Ольга Фокіна
Звукорежисер: Денис Подляський
Звукорежисер перезапису: Юрій Антонов
Ролі дублювали: Гарольд / Девід ОйеловоДмитро Гаврилов,
Річард / Джоел ЕдґертонРоман Чорний,
Елейн / Шарліз ТеронНаталя Ярошенко,
Мітч / Шарлто КопліАндрій Твердак,
Сані / Аманда СайфредЮлія Перенчук
Майлз / Гаррі Тредевей – Володимир Канівець,
Анхель / Юл Васкес – Олександр Шевчук,
а також: Олесь Гімбаржевський, Вікторія Москаленко, Олександр Ігнатуша та інші

Дубльовано студією Postmodern на замовлення "Вольга Україна".
Аудіо # 3:
мова: англійська
переклад: оригінал
кодек: 5.1
бітрейт: 640 кб/с

Субтитри # 1-2 :
мова: англійська (повні, SDH)
тип: програмні (м'які)
формат: *.srt

Збережено оригінальні розділи, як на Blu-ray
Info
Код:
Complete name               : Gringo (2018) [Ukr,Eng sub.Eng] 1080p [Hurtom].
Format                      :
Format version              : Version 4 / Version 2
File size                   : 11.4 GiB
Duration                    : 1 h 50 min
Overall bit rate            : 14.8 Mb/s
Movie name                  : Небезпечний бізнес / Gringo (2018) [Ukr,Eng sub.Eng] 1080p [Hurtom]
Released date               : 2018
Encoded date                : UTC 2018-05-30 10:56:51
Writing application         : v23.0.0 ('The Bride Said No') 64-bit
Writing library             : libebml v1.3.6 + v1.4.9
Cover                       : Yes
Comment                     : http://www.imdb.com/title/tt3721964/
Attachments                 : cover.jpg
ARTIST                      : Шарліз Терон / Charlize Theron, Джоел Едґертон / Joel Edgerton, Девід Ойелово / David Oyelowo, Тенді Ньютон / Thandie Newton, Башир Салагуддін / Bashir Salahuddin, Гленн Кубота / Glenn Kubota, Мелоні Діаз / Melonie Diaz, Аманда Сайфред / Amanda Seyfried, Гаррі Тредевей / Harry Treadaway, Тео Тапліц / Theo Taplitz, Юл Васкес / Yul Vazquez, Шарлто Коплі / Sharlto Copley, Алан Рак / Alan Ruck та інші
DIRECTOR                    : Неш Едґертон / Nash Edgerton
GENRE                       : бойовик, драма, комедія, кримінальний
SYNOPSIS                    : Ґрінґо працює в одній з численних фармацевтичних компаній. Звичайний планктон. Його начальниця, довгонога блондинка з стервозним характером, відправляє його з секретною формулою медичної марихуани в Мексику, яка принесе власникам мільярди. Він навіть не здогадується, в яке кримінальне середовище незабаром потрапить. Після прибуття Ґрінґо повинен зв'язатися з місцевими наркобаронами, міжнародними дилерами і Адміністрацією з контролю над наркотиками США. Після цього Ґрінґо тільки і намагається вижити в цій країні...
Url                         : https://toloka.to/t90145

Video
ID                          : 1
Format                      : AVC
Format/Info                 : Advanced Video Codec
Format profile              : [email protected]
Format settings             : CABAC / 5 Ref Frames
Format settings, CABAC      : Yes
Format settings, ReFrames   : 5 frames
Codec ID                    : V_MPEG4/ISO/AVC
Duration                    : 1 h 50 min
Bit rate                    : 12.0 Mb/s
Width                       : 1 920 pixels
Height                      : 804 pixels
Display aspect ratio        : 2.40:1
Frame rate mode             : Constant
Frame rate                  : 23.976 (24000/1001) FPS
Color space                 : YUV
Chroma subsampling          : 4:2:0
Bit depth                   : 8 bits
Scan type                   : Progressive
Bits/(Pixel*Frame)          : 0.324
Stream size                 : 9.27 GiB (81%)
Title                       : Небезпечний бізнес / Gringo (2018) 1080p [ExKinoRay]
Writing library             : core 142 r2431+42 c69a006 tMod [[email protected] X86_64]
Encoding settings           : cabac=1 / ref=5 / deblock=1:-3:-3 / analyse=0x3:0x133 / me=umh / subme=11 / psy=1 / fade_compensate=0.00 / psy_rd=1.05:0.00 / mixed_ref=1 / me_range=64 / chroma_me=1 / trellis=2 / 8x8dct=1 / cqm=0 / deadzone=21,11 / fast_pskip=0 / chroma_qp_offset=-2 / threads=16 / lookahead_threads=1 / sliced_threads=0 / nr=0 / decimate=0 / interlaced=0 / bluray_compat=0 / constrained_intra=0 / fgo=0 / bframes=8 / b_pyramid=2 / b_adapt=2 / b_bias=0 / direct=3 / weightb=1 / open_gop=0 / weightp=2 / keyint=240 / keyint_min=24 / scenecut=40 / intra_refresh=0 / rc_lookahead=40 / rc=2pass / mbtree=0 / bitrate=12000 / ratetol=1.0 / qcomp=0.70 / qpmin=0:0:0 / qpmax=69:69:69 / qpstep=4 / cplxblur=20.0 / qblur=0.5 / vbv_maxrate=50000 / vbv_bufsize=45000 / nal_hrd=none / filler=0 / ip_ratio=1.25 / pb_ratio=1.15 / aq=3:0.80 / aq-sensitivity=10.00 / aq-factor=1.00:1.00:1.00 / aq2=0 / aq3=0
Language                    : English
Default                     : Yes
Forced                      : No

Audio #1
ID                          : 2
Format                      : AC-3
Format/Info                 : Audio Coding 3
Codec ID                    : A_AC3
Duration                    : 1 h 50 min
Bit rate mode               : Constant
Bit rate                    : 640 kb/s
Channel(s)                  : 6 channels
Channel positions           : Front: L C R, Side: L R, LFE
Sampling rate               : 48.0 kHz
Frame rate                  : 31.250 FPS (1536 SPF)
Bit depth                   : 16 bits
Compression mode            : Lossy
Stream size                 : 506 MiB (4%)
Title                       : Dub [Postmodern] 5.1 640 Kbps [Hurtom - AngryBirdsUA, Hanway]
Language                    : Ukrainian
Service kind                : Complete Main
Default                     : Yes
Forced                      : Yes

Audio #2
ID                          : 3
Format                      :
Format/Info                 : Digital Theater Systems
Codec ID                    : A_DTS
Duration                    : 1 h 50 min
Bit rate mode               : Constant
Bit rate                    : 1 509 kb/s
Channel(s)                  : 6 channels
Channel positions           : Front: L C R, Side: L R, LFE
Sampling rate               : 48.0 kHz
Frame rate                  : 93.750 FPS (512 SPF)
Bit depth                   : 24 bits
Compression mode            : Lossy
Stream size                 : 1.17 GiB (10%)
Title                       : Dub [Postmodern] 5.1 1509 Kbps [Hurtom - AngryBirdsUA, Hanway]
Language                    : Ukrainian
Default                     : No
Forced                      : No

Audio #3
ID                          : 4
Format                      : AC-3
Format/Info                 : Audio Coding 3
Codec ID                    : A_AC3
Duration                    : 1 h 50 min
Bit rate mode               : Constant
Bit rate                    : 640 kb/s
Channel(s)                  : 6 channels
Channel positions           : Front: L C R, Side: L R, LFE
Sampling rate               : 48.0 kHz
Frame rate                  : 31.250 FPS (1536 SPF)
Bit depth                   : 16 bits
Compression mode            : Lossy
Stream size                 : 506 MiB (4%)
Title                       : Original, 5.1 640 Kbps
Language                    : English
Service kind                : Complete Main
Default                     : No
Forced                      : No

Text #1
ID                          : 5
Format                      : UTF-8
Codec ID                    : S_TEXT/UTF8
Codec ID/Info               : UTF-8 Plain Text
Duration                    : 1 h 42 min
Bit rate                    : 55 b/s
Count of elements           : 1287
Stream size                 : 42.0 KiB (0%)
Title                       : Eng full
Language                    : English
Default                     : No
Forced                      : No

Text #2
ID                          : 6
Format                      : UTF-8
Codec ID                    : S_TEXT/UTF8
Codec ID/Info               : UTF-8 Plain Text
Duration                    : 1 h 44 min
Bit rate                    : 64 b/s
Count of elements           : 1481
Stream size                 : 49.2 KiB (0%)
Title                       : Eng SDH
Language                    : English
Default                     : No
Forced                      : No

Menu
00:00:00.000                : en:00:00:00.000
00:02:29.024                : en:00:02:29.024
00:08:36.808                : en:00:08:36.808
00:14:49.388                : en:00:14:49.388
00:19:43.057                : en:00:19:43.057
00:26:11.195                : en:00:26:11.195
00:29:59.548                : en:00:29:59.548
00:34:12.676                : en:00:34:12.676
00:41:59.600                : en:00:41:59.600
00:49:14.702                : en:00:49:14.702
00:57:12.304                : en:00:57:12.304
01:02:56.940                : en:01:02:56.940
01:09:40.551                : en:01:09:40.551
01:16:20.951                : en:01:16:20.951
01:20:38.125                : en:01:20:38.125
01:25:53.857                : en:01:25:53.857
01:29:14.224                : en:01:29:14.224
01:33:46.704                : en:01:33:46.704
01:39:06.524                : en:01:39:06.524
01:43:28.869                : en:01:43:28.869


Джерело: &
Подяка п. AngryBirdsUA та п. Hanway за якісний український звук

30.05.2018 реліз оновлено - замінено звук та відео на якісніші


 Трекер:    Зареєстрований   

Завантажити / скачати фільм українською



відео для новачків



 Зареєстрований:   2018-05-30 14:12
 Розмір:   11.43 GB 
 Оцінка фільму:   8.9/10 (Голосів: 41)
   
Інші релізи
ridley 
Частий відвідувач


З нами з: 20.01.18
Востаннє: 21.06.18
Повідомлень: 28

2018-05-24 00:12  
Цікаво як в українському маркетингу Шарліз Терон і зліва, і справа і по центру, тоді як її персонаж - другорядний. Rolleyes (1)
igorles 
Новенький


З нами з: 23.04.09
Востаннє: 10.09.20
Повідомлень: 1

2018-05-24 17:21  
Дякую,перегляд підняв настрій.
Anonymous 







2018-05-30 14:14  
Реліз оновлено - замінено звук та відео на якісніші

Додано через 29 секунд:

"золото" на тиждень для заохочення підтримки

Wowatorrent 
Поважний учасник


З нами з: 24.03.16
Востаннє: 21.09.20
Повідомлень: 174

2018-05-30 19:27  
вряди-годи. Яка радість))
Roman7Fedorak 
Свій


З нами з: 30.03.12
Востаннє: 20.09.20
Повідомлень: 124

2018-05-31 10:43  
ооо моє золотце :В качаю )
vsenkiv 
Новенький


З нами з: 09.10.15
Востаннє: 19.09.20
Повідомлень: 10

2018-06-01 13:08  
Я заснув під час перегляду(
Janetinka 
Новенький


З нами з: 16.09.12
Востаннє: 18.09.20
Повідомлень: 3

2018-06-03 11:55  
переклад дуже гарний!
slavas 
Новенький


З нами з: 05.04.11
Востаннє: 18.08.20
Повідомлень: 24

2018-06-25 22:19  
гарний сюжет
Telepaiko 
Частий відвідувач


З нами з: 29.07.16
Востаннє: 30.08.20
Повідомлень: 30

2018-06-29 21:09  
Фільм на диво непоганий. Рекомендую подивитись.
SERG)One 
Новенький


З нами з: 13.08.09
Востаннє: 20.09.20
Повідомлень: 6

2018-08-04 22:16  
непоганий фільм, на відміну від розрекламованих блокбастерів до нього немає завищених очікувань, просто хороший фільм на вечір, і переклад дійсно чудовий
Infoserfer 
Свій


З нами з: 31.10.09
Востаннє: 17.09.20
Повідомлень: 139

2020-05-27 02:50  
Анонс не зовсім відповідає сюжету...
Сюжетні ниточки обертаються довколо "лівих" заробітків фармацевтичних фірм, мексиканської наркомафії, корпоративних махінацій і поглинань, зради і хтивості, шахрайства й вимагательства, невпинного бажання наживи за рахунок інших, і впродовж фільму переплітаються настільки міцно, що в кінці цей "гордіїв вузол" доводиться не розплутувати, а розрубувати. Проте, певний гепі-енд таки є.
У стрічці є кілька смішних моментів, але загалом комедією це якось не назвеш. Така собі енциклопедія взаємодії людських пороків...
5/10

Ваш часовий пояс: GMT + 2 Години

Нова тема   Відповісти