Крильце чи ніжка / L'aile ou la cuisse (1976) AVC Ukr/Fra | Sub Fra/Eng

Нові коментарі

Нова тема   Відповісти
Автор Повідомлення
staf777 
Відео Гуртом - підтримка та поширення
Відео Гуртом - підтримка та поширення


З нами з: 16.11.16
Востаннє: 25.05.19
Повідомлень: 2382

2018-05-23 18:08  
Крильце чи ніжка / L'aile ou la cuisse (1976) AVC Ukr/Fra | Sub Fra/Eng

Крильце чи ніжка / L'aile ou la cuisse (1976) AVC Ukr/Fra | Sub Fra/Eng


Жанр: комедія, сімейний
Країна: Франція



Кінокомпанія: Les Films Christian Fechner
Режисер: Клод Зіді
Актори: Луї де Фюнес, Колюш, Енн Захаріас, Жюльєн Ґіомар, Клоді Женсак, Жорж Шамара, Жан Мартен, Фернан Ґійо, Жерар Букарон, Антуан Марен, Ів Афонсо, Раймон Буссьєре, Філіпп Бувар, Марсель Даліо, Вітторіо Капріолі, Даніель Ланґле, Мартен Ламотт, Поль Бішілья, Робер Ломбард, П’єр Форже, Аврора Маріс, Едуардо Берґара Лойманн, Альбер Мішель, Макс Монтавон, П’єр Деказе, Мак Роней, Домінік Даврай та інші.

Сюжет:
Шарль Дюшмен – високоповажна людина в галузі ресторанного бізнесу Франції. А все тому, що цей уже не молодий чоловік є авторитетним знавцем цієї галузі і автором найвпливовішого ресторанного довідника, який випускається ним щороку. Щоб зібрати інформацію для своєї книги йому доводиться вдаватися до різноманітних хитрощів, адже головна умова повноцінного дослідження – залишитися не впізнаним.


Тривалість: 01:45:09
Якість: AVC
Відео:
кодек:
розмір кадру: 1024x436
бітрейт: 3366 кб/с

Аудіо # 1:
мова: українська
переклад: багатоголосий закадровий
кодек: 2.0
бітрейт: 192 кб/с

Аудіо # 2:
мова: французька
переклад: оригінал
кодек: 2.0
бітрейт: 192 кб/с

Джерело озвучення:


Субтитри:
мова: французька
тип: програмні (м'які)
формат: *.srt

Субтитри:
мова: англійська
тип: програмні (м'які)
формат: *.srt
Info
General
Unique ID : 185515243525428206655772705922291566066 (0x8B90EFAF0947CE29B0EA060D5FA385F2)
Complete name : H:\» Українське озвучення » Фільми\Комедія\L'aile ou la cuisse (1976) AVC [Ukr][Fra][Hurtom].
Format :
Format version : Version 4 / Version 2
File size : 2.76 GiB
Duration : 1 h 45 min
Overall bit rate : 3 752 kb/s
Movie name : L'aile ou la cuisse (1976) AVC [Ukr][Fra][Hurtom]
Encoded date : UTC 2018-05-23 16:26:50
Writing application : v9.8.0 ('Kuglblids') 64bit
Writing library : libebml v1.3.4 + v1.4.5
Cover : Yes
Attachments : cover.jpg

Video
ID : 1
Format : AVC
Format/Info : Advanced Video Codec
Format profile : [email protected]
Format settings : CABAC / 12 Ref Frames
Format settings, CABAC : Yes
Format settings, ReFrames : 12 frames
Codec ID : V_MPEG4/ISO/AVC
Duration : 1 h 45 min
Bit rate : 3 366 kb/s
Width : 1 024 pixels
Height : 436 pixels
Display aspect ratio : 2.35:1
Frame rate mode : Constant
Frame rate : 24.000 FPS
Color space : YUV
Chroma subsampling : 4:2:0
Bit depth : 8 bits
Scan type : Progressive
Bits/(Pixel*Frame) : 0.314
Stream size : 2.47 GiB (90%)
Title : Laile ou la cuisse.1976..AVC
Writing library : core 152 r2851 ba24899
Encoding settings : cabac=1 / ref=12 / deblock=1:-3:-3 / analyse=0x3:0x133 / me=umh / subme=10 / psy=1 / psy_rd=1.10:0.05 / mixed_ref=1 / me_range=32 / chroma_me=1 / trellis=2 / 8x8dct=1 / cqm=0 / deadzone=21,11 / fast_pskip=0 / chroma_qp_offset=-3 / threads=3 / lookahead_threads=1 / sliced_threads=0 / nr=0 / decimate=1 / interlaced=0 / bluray_compat=0 / constrained_intra=0 / bframes=11 / b_pyramid=2 / b_adapt=2 / b_bias=0 / direct=3 / weightb=1 / open_gop=0 / weightp=2 / keyint=240 / keyint_min=24 / scenecut=40 / intra_refresh=0 / rc_lookahead=40 / rc=2pass / mbtree=1 / bitrate=3366 / ratetol=1.0 / qcomp=0.60 / qpmin=10 / qpmax=51 / qpstep=4 / cplxblur=20.0 / qblur=0.5 / vbv_maxrate=50000 / vbv_bufsize=62500 / nal_hrd=none / filler=0 / ip_ratio=1.40 / aq=1:1.00
Default : Yes
Forced : No

Audio #1
ID : 2
Format : AC-3
Format/Info : Audio Coding 3
Codec ID : A_AC3
Duration : 1 h 45 min
Bit rate mode : Constant
Bit rate : 192 kb/s
Channel(s) : 2 channels
Channel positions : Front: L R
Sampling rate : 48.0 kHz
Frame rate : 31.250 FPS (1536 SPF)
Bit depth : 16 bits
Compression mode : Lossy
Stream size : 144 MiB (5%)
Title : DVO - 1+1
Language : Ukrainian
Service kind : Complete Main
Default : Yes
Forced : Yes

Audio #2
ID : 3
Format : AC-3
Format/Info : Audio Coding 3
Codec ID : A_AC3
Duration : 1 h 45 min
Bit rate mode : Constant
Bit rate : 192 kb/s
Channel(s) : 2 channels
Channel positions : Front: L R
Sampling rate : 48.0 kHz
Frame rate : 31.250 FPS (1536 SPF)
Bit depth : 16 bits
Compression mode : Lossy
Stream size : 144 MiB (5%)
Title : Original
Language : French
Service kind : Complete Main
Default : No
Forced : No

Text #1
ID : 4
Format : UTF-8
Codec ID : S_TEXT/UTF8
Codec ID/Info : UTF-8 Plain Text
Duration : 1 h 44 min
Bit rate : 51 b/s
Count of elements : 2035
Stream size : 39.7 KiB (0%)
Language : French
Default : No
Forced : No

Text #2
ID : 5
Format : UTF-8
Codec ID : S_TEXT/UTF8
Codec ID/Info : UTF-8 Plain Text
Duration : 1 h 41 min
Bit rate : 50 b/s
Count of elements : 963
Stream size : 38.0 KiB (0%)
Language : English
Default : No
Forced : No

Menu
00:00:00.000 : en:Chapter 1
00:07:41.542 : en:Chapter 2
00:16:24.750 : en:Chapter 3
00:25:40.667 : en:Chapter 4
00:36:44.292 : en:Chapter 5
00:42:57.708 : en:Chapter 6
00:51:04.042 : en:Chapter 7
01:02:19.875 : en:Chapter 8
01:09:50.708 : en:Chapter 9
01:17:52.125 : en:Chapter 10
01:28:56.750 : en:Chapter 11
01:35:38.500 : en:Chapter 12
Скріншоти



Джерело: &
Особиста оцінка: 10 - без зайвих вагань рекомендую всім!


Срібний реліз (на рейтинг впливає 50% завантаженого)
 Трекер:    Зареєстрований   

Завантажити / скачати фільм українською



відео для новачків



 Зареєстрований:   2018-05-23 19:43
 Розмір:   2.76 GB 
 Оцінка фільму:   9.4/10 (Голосів: 16)
   
Інші релізи
NovakBogdan 
Частий відвідувач


З нами з: 13.11.12
Востаннє: 23.05.19
Повідомлень: 40

2018-05-26 00:09  
Дякую.
Ваш часовий пояс: GMT + 2 Години

Нова тема   Відповісти