Термінал / Terminal (2018)

Нові коментарі

Нова тема   Відповісти
Автор Повідомлення
Anonymous 







2018-05-23 16:38  
Термінал / Terminal (2018)



Жанр: драма, кримінал, трилер
Країна: США, Велика Британія, Гонконг, Угорщина, Ірландія



Кінокомпанія: Proton Cinema
Режисер: Вон Стайн
Актори: Марґо Роббі, Саймон Пег, Майк Майєрс, Макс Айронс, Декстер Флетчер, Меттью Льюїс, Катаріна Час, Нік Моран, Томас Турґус, Джордан Данн та інші

Сюжет:
Двоє найманих вбивць отримують завдання. Ця справа може суттєво збагатити їх, проте пов'язана з неабияким ризиком. Офіціантка з місцевого кафе Енні (Марґо Роббі) береться допомагати кілерам. І невдовзі стає зрозуміло, що вона вплутана у цю справу не менше, ніж самі хлопці. Стривайте, а ця дівчина точно офіціантка? Вона вміло змінює образи і майстерно маніпулює кожним чоловіком, який трапляється на її шляху.


Тривалість: 01:35:32
Якість:
Відео:
кодек:
розмір кадру: 720 х 400
бітрейт: 1872 кб/с

Аудіо:
мова: українська
переклад: професійний дубльований | студія ААА-sound
кодек: 2.0
бітрейт: 192 кб/с
Інформація про дубляж
Режисер дубляжу та звукорежисер перезапису: Олександр Єфімов
Ролі дублювали: Катерина Брайковська, Дмитро Завадський, Ярослав Чорненький, Роман Чорний, Андрій Альохін, Катерина Буцька, Дмитро Гаврилов, Андрій Федінчик та інші.

Фільм озвучено студією ААА-sound у 2018 році на замовлення компанії UFD.
Субтитри:
мова: українська (форсовані)
тип: програмні (м'які)
формат: *.srt
Info
Код:
General
Complete name               : Terminal (2018) [Ukr] [Hurtom].avi
Format                      : AVI
Format/Info                 : Audio Video Interleave
File size                   : 1.38 GiB
Duration                    : 1 h 35 min
Overall bit rate            : 2 074 kb/s
Movie name                  : Термінал / Terminal (2018) [Ukr] [Hurtom]
Genre                       : драма, кримінальний, трилер
Recorded date               : 23.05.2018
Writing application         : VirtualDubModUkr 1.5.10.2 (build 2542/release)
Writing library             : VirtualDubMod build 2542/release
Comment                     : https://toloka.to/t90139

Video
ID                          : 0
Format                      : MPEG-4 Visual
Format profile              : [email protected]
Format settings, BVOP       : No
Format settings, QPel       : No
Format settings, GMC        : No warppoints
Format settings, Matrix     : Default (H.263)
Codec ID                    :
Codec ID/Hint               :
Duration                    : 1 h 35 min
Bit rate                    : 1 872 kb/s
Width                       : 720 pixels
Height                      : 400 pixels
Display aspect ratio        : 16:9
Frame rate                  : 23.976 (24000/1001) FPS
Color space                 : YUV
Chroma subsampling          : 4:2:0
Bit depth                   : 8 bits
Scan type                   : Progressive
Compression mode            : Lossy
Bits/(Pixel*Frame)          : 0.271
Stream size                 : 1.25 GiB (90%)
Writing library             : Lavc58.1.100

Audio
ID                          : 1
Format                      : AC-3
Format/Info                 : Audio Coding 3
Codec ID                    : 2000
Duration                    : 1 h 35 min
Bit rate mode               : Constant
Bit rate                    : 192 kb/s
Channel(s)                  : 2 channels
Channel positions           : Front: L R
Sampling rate               : 48.0 kHz
Frame rate                  : 31.250 FPS (1536 SPF)
Bit depth                   : 16 bits
Compression mode            : Lossy
Stream size                 : 131 MiB (9%)
Alignment                   : Split accross interleaves
Interleave, duration        : 42  ms (1.00 video frame)
Interleave, preload duratio : 500  ms
Title                       : UKR DUB [AAA-sound, Line]
Service kind                : Complete Main


Джерело: &


 Трекер:    Зареєстрований   

Завантажити / скачати фільм українською



відео для новачків



 Зареєстрований:   2018-05-23 17:20
 Розмір:   1.38 GB 
 Оцінка фільму:   8.5/10 (Голосів: 59)
   
Інші релізи
   Термінал / Terminal (2018) 1080p H.265 Ukr/Eng | Sub Eng ukr_anonymous  5 / 0   5.48 GB   2018-07-06 13:38 
   Термінал / Terminal (2018) 720p Ukr/Eng | Sub Eng igor911  11 / 0   3.29 GB   2018-05-23 18:16 
   Термінал / Terminal (2018) 1080p Ukr/Eng | Sub Eng staf777  16 / 0   6.9 GB   2018-05-23 17:40 
   Термінал / Terminal (2018) AVC Ukr/Eng | Sub Eng uafilm.tv  14 / 0   1.73 GB   2018-05-23 15:49 
RomaOnyshchuk 
Новенький


З нами з: 28.03.16
Востаннє: 16.12.18
Повідомлень: 2

2018-05-23 20:52  
Що з звуком???
miramaxx 
Частий відвідувач


З нами з: 18.05.11
Востаннє: 13.12.18
Повідомлень: 44

2018-05-23 22:46  
викинутий час на вітер. нудне передбачуване недо-кіно ні про шо. розчаровує вже за кілька хвилин, а решту часу просто чекав на шось невідомо на шо.... а в відповідь тишина.
доволі багато діалогів, та сенсу в них небагато.
проходьте мимо, не вартий уваги

pasport22 
Частий відвідувач


З нами з: 30.10.14
Востаннє: 02.12.18
Повідомлень: 45

2018-05-24 11:30  
звук хрипить
tpolit 
VIP


З нами з: 10.01.15
Востаннє: 16.12.18
Повідомлень: 371

2018-05-25 08:36  
Слабке кіно. Я думав, сінематограф вже перехворів фільмами такого типу )) Уявіть, в ньому навіть повторили сцену з крутим і досвідченим вбивцею, на якого напали зелені і тупі початківці, щоб пограбувати, але він їх звичайно ж помножив на нуль, навчаючи в процесі правді життя. Таке було вже в "кримінальному чтиві", "Карти, гроші, два стволи", мабуть ще десь. Єдина приємність - це гарнюня і розпусна головна акторка )
6/10

volodymyr_sav 
VIP


З нами з: 07.10.13
Востаннє: 12.12.18
Повідомлень: 1486

2018-05-25 13:56  
То шо виключити звук і дивитись порно відео з роббі?
[email protected] 
Відео Гуртом - підтримка та поширення
Відео Гуртом - підтримка та поширення


З нами з: 16.06.12
Востаннє: 17.12.18
Повідомлень: 1277

2018-05-26 18:44  
Звук хрипить, качайте AVC доріжку
Anonymous 







2018-05-26 19:08  
[email protected], звук скрізь однаковий.
Arcon Sarkel 
Попереджень: 2
Попереджень: 2 


З нами з: 04.03.16
Востаннє: 17.12.18
Повідомлень: 201

2018-05-27 09:26  
Кволий сюжет фільму. Ліпше Hostiles (2017) зочити.
polkovnikk 
Новенький


З нами з: 27.10.10
Востаннє: 16.12.18
Повідомлень: 23

2018-06-08 07:33  
фільм ні про що, але на один раз подивитись можна, гра акторів чудова
hontar.mv 
Новенький


З нами з: 08.08.17
Востаннє: 14.12.18
Повідомлень: 1

2018-06-10 10:04  
звук жахливий, могли б попередити, що аудіо з екранки. хоча б оригінальну доріжку лишили
yarik452 
Частий відвідувач


З нами з: 30.01.10
Востаннє: 25.11.18
Повідомлень: 25

2018-06-10 16:14  
Гарне кіно. Мені сподобалось.
Stalker338 
Новенький


З нами з: 11.09.16
Востаннє: 21.06.18
Повідомлень: 2

2018-06-21 12:14  
Оотже. Персонажі класні. Естетика і атмосфера витримана. Сюжет - ну так собі, лінійний. Головний мінус кіна - вакуум. Вся дія відбувається в якомусь замкненому просторі поза часом, без зовнішніх подразників. Саме вакуум завдавав найбільше дискомфорту.
Звук згодом вирівнявся. Загалом було цікаво.

Ваш часовий пояс: GMT + 2 Години

Нова тема   Відповісти