Мелісса та Джої / Melissa & Joey (Сезон 1) (2010) 720p Ukr/Eng

Нові коментарі

Нова тема   Відповісти
Автор Повідомлення
sergiyko.5 
Забанено
Забанено


З нами з: 25.02.16
Востаннє: 29.10.20
Повідомлень: 3650

2018-05-23 14:18  
Мелісса та Джої / Melissa & Joey (Сезон 1) (2010) 720p Ukr/Eng


Мелісса та Джої / Melissa & Joey (Сезон 1) (2010) 720p Ukr/Eng

Жанр: комедія
Країна: США
Кінокомпанія: Hartbreak Films
Режисер: Девід Кендалл, Боб Янг
Актори: Мелісса Джоан Харт, Джозеф Лоуренс, Тейлор Спрейтлер, Нік Дж. Робінсон, Люсі ДеВіто

Сюжет:
Мелісса все своє життя присвятила політиці та домоглася чималих успіхів у своїй кар’єрі. Якось вона змушена була стати опікуном своїх племінників. Поєднувати важку роботу політика з вихованням дітей дуже складно, і вона розуміє, що вона може не впоратися. Джої – колишній співробітник чоловіка сестри Мелісси, який на даний момент залишився без роботи і не може знайти постійний заробіток. Він приймає пропозицію Мелісси і стає нянькою для її племінників …




Тривалість: 1 серія: 22:00 (цілком серій: 30 з 30)
Якість:

Відео: кодек: розмір кадру: 1280x720 бітрейт: 3915 кб/с
Аудіо # 1: мова: українська переклад: багатоголосий закадровий кодек: 2.0 бітрейт: 192 кб/с
Джерело озвучення:
Аудіо # 2: мова: англійська переклад: оригінал кодек: 5.1 бітрейт: 384 кб/с
Перелік серій
s01e01 Pilot
s01e02 Moving On
s01e03 Nanny Love
s01e04 Boy Toys 'R' Us
s01e05 The Perfect Storm
s01e06 Spies & Lies
s01e07 Up Close & Personal
s01e08 Dancing with the Stars of Toledo
s01e09 Seoul Man
s01e10 In Lennox We Trust
s01e11 A Fright in the Attic
s01e12 Joe Knows
s01e13 Enemies with Benefits
s01e14 Lost in Translation
s01e15 Don't Train on My Parade
s01e16 Joe Versus the Reunion
s01e17 Toledo's Next Top Model
s01e18 Auction Hero
s01e19 The Mel Word
s01e20 Waiting for Mr. Right
s01e21 Young Love
s01e22 Mel and Joe's Anniversary
s01e23 All Politics is Local
s01e24 Going the Distance?
s01e25 Teacher/Teacher
s01e26 The Other Longo
s01e27 Play Ball
s01e28 A House Divided
s01e29 The Settlement
s01e30 Do as I Say, Not as I Did
Info
General
Unique ID : 319157049358952142061083316797636870233 (0xF01B696DD6EAEBE5C260E983668C0059)
Complete name : F:\Content\FILMS\Melissa and Joey 720p \Melissa and Joey S01 720p \S01E01.Pilot.720p..Ukr.Eng.
Format :
Format version : Version 4 / Version 2
File size : 703 MiB
Duration : 21 min 53 s
Overall bit rate : 4 493 kb/s
Movie name : Melissa and Joey S01 720p by sergiyko
Encoded date : UTC 2018-05-23 12:15:25
Writing application : v23.0.0 ('The Bride Said No') 64-bit
Writing library : libebml v1.3.6 + v1.4.9

Video
ID : 1
Format : AVC
Format/Info : Advanced Video Codec
Format profile : [email protected]
Format settings, CABAC : No
Format settings, ReFrames : 2 frames
Codec ID : V_MPEG4/ISO/AVC
Duration : 21 min 53 s
Bit rate : 3 915 kb/s
Width : 1 280 pixels
Height : 720 pixels
Display aspect ratio : 16:9
Frame rate mode : Constant
Frame rate : 23.976 (23976/1000) FPS
Color space : YUV
Chroma subsampling : 4:2:0
Bit depth : 8 bits
Scan type : Progressive
Bits/(Pixel*Frame) : 0.177
Stream size : 613 MiB (87%)
Title : S01E01 Pilot
Language : English
Default : Yes
Forced : No
Color range : Limited
Color primaries : BT.709
Transfer characteristics : BT.709
Matrix coefficients : BT.709

Audio #1
ID : 2
Format : AC-3
Format/Info : Audio Coding 3
Mode extension : CM (complete main)
Format settings, Endianness : Big
Codec ID : A_AC3
Duration : 21 min 53 s
Bit rate mode : Constant
Bit rate : 192 kb/s
Channel(s) : 2 channels
Channel positions : Front: L R
Sampling rate : 48.0 kHz
Frame rate : 31.250 FPS (1536 spf)
Bit depth : 16 bits
Compression mode : Lossy
Stream size : 30.1 MiB (4%)
Title : MOV | Новий канал
Language : Ukrainian
Default : Yes
Forced : Yes

Audio #2
ID : 3
Format : AC-3
Format/Info : Audio Coding 3
Mode extension : CM (complete main)
Format settings, Endianness : Big
Codec ID : A_AC3
Duration : 21 min 53 s
Bit rate mode : Constant
Bit rate : 384 kb/s
Channel(s) : 6 channels
Channel positions : Front: L C R, Side: L R, LFE
Sampling rate : 48.0 kHz
Frame rate : 31.250 FPS (1536 spf)
Bit depth : 16 bits
Compression mode : Lossy
Stream size : 60.1 MiB (9%)
Title : Original
Language : English
Default : No
Forced : No
Скріншоти:


Автор запису/зведення: sergiyko

Роздавати немає можливості, реліз можна завантажити тут https://mega.nz/#F!maplDSyZ!n_5QD2dKsyztSKmMQecLYg


Бронзовий реліз (на рейтинг впливає 75% завантаженого)
 Трекер:    Зареєстрований   

Завантажити / скачати серіал українською



відео для новачків



 Зареєстрований:   2018-05-25 11:18
 Розмір:   20.65 GB 
 Оцінка серіалу:   8.9/10 (Голосів: 9)
   
merc67 
Новенький


З нами з: 14.07.15
Востаннє: 30.11.20
Повідомлень: 1

2018-05-24 18:26  
Коли продовження?
sergiyko.5 
Забанено
Забанено


З нами з: 25.02.16
Востаннє: 29.10.20
Повідомлень: 3650

2018-05-25 11:20  
Додав 11-30 серії. Сезон повний.
Neytreenor 
Відео Гуртом - запис з ТБ
Відео Гуртом - запис з ТБ


З нами з: 03.04.11
Востаннє: 03.12.20
Повідомлень: 2923

2018-08-05 10:59  
Решту сезонів робитимеш?
sergiyko.5 
Забанено
Забанено


З нами з: 25.02.16
Востаннє: 29.10.20
Повідомлень: 3650

2018-08-05 14:41  
Neytreenor написано:
Решту сезонів робитимеш?

Записи є, але не розібрані на серії, не знаю чи всі. Поки що не планував робити.

Neytreenor 
Відео Гуртом - запис з ТБ
Відео Гуртом - запис з ТБ


З нами з: 03.04.11
Востаннє: 03.12.20
Повідомлень: 2923

2018-08-05 14:50  
sergiyko.5 написано:
Записи є, але не розібрані на серії, не знаю чи всі. Поки що не планував робити.

Тоді не видаляй, будь ласка, записи. Або скинь одразу. Може дійтуть руки самому його зробити. Часу, як завжди, бракує, але подивитися продовження точно хочеться.

Allius 
Новенький


З нами з: 11.08.14
Востаннє: 14.11.20
Повідомлень: 1

2019-01-10 09:21  
Встаньте на роздачу, хто небуть. Дякую.
yussuf 
Свій


З нами з: 08.06.09
Востаннє: 03.12.20
Повідомлень: 78

2019-02-05 19:33  
МІСТЕР ПРОПЕР???
Ваш часовий пояс: GMT + 2 Години

Нова тема   Відповісти