Трон: Повстання (Сезон 1, серія 1) / Tron: Uprising (Season 1, episode 1) (2012) 1080p Ukr/Eng

Нові коментарі

Нова тема   Відповісти
Останній раз роздавалося missolesia (2019-01-26)
Автор Повідомлення
David Niki 
Новенький


З нами з: 17.05.18
Востаннє: 28.09.19
Повідомлень: 2

2018-05-23 15:09  
Трон: Повстання (Сезон 1, Серія 1) / Tron: Uprising (Season 1, Episode 1) (2012) 1080p Ukr/Eng

Трон: Повстання (Сезон 1, серія 1) / Tron: Uprising (Season 1, episode 1) (2012) 1080p Ukr/Eng


Жанр: анімація, фантастика, бойовик, пригодницький
Країна: США



Кінокомпанія: Disney Television Animation
Режисер: Чарлі Бін
Актори: Елайджа Вуд, Брюс Бокслайтнер, Ленс Генріксен, Пол Рубенс, Еммануель Шрікі, Тріція Гелфер, Натан Кордрі, Реджинальд ВелДжонсон, Менді Мур, Чарлі Бін, Елізабет Хо, Сем Рігел, Кейт Сілверштейн, Меган Голавей, Дональд Фейсон, Пол Шеер, Фред Татаскьор, Ленс Реддік, Кейт Мара, Джон Гловер, Олівія Вайлд, Кріс Клейн та інші

Сюжет:
Мультсеріал, дії якого відбуваються у всесвіті Трону, в проміжку між подіями оригінального фільму «Трон» 1982 року і фільму «Трон: Спадщина».


Український трейлер зі зразком дубляжу:


Тривалість: 1 серія: 32:15 (цілком серій: 1)
Перелік серій
1.Початок Бека / Beck's Beginning
Якість:
Відео:
кодек:
розмір кадру: 1920х1080
бітрейт: 9253 кб/с

Аудіо # 1:
мова: українська
переклад: професійний дубльований
кодек: 5.1
бітрейт: 320 кб/с

Аудіо # 2:
мова: англійська
переклад: оригінал
кодек: 5.1
бітрейт: 384 кб/с

Джерело озвучення:
Info
General
Unique ID : 147761588364647647065675928772165143974 (0x6F29D8C5AAED9148840AA47704228DA6)
Complete name : D:\Музыка\Shapovaiov REMIXED\ \My\Мої відео\Tron Uprising 1 Episode.[Ukr Eng] 2012 ..1080p.
Format :
Format version : Version 4 / Version 2
File size : 2.29 GiB
Duration : 32mn 15s
Overall bit rate : 10.2 Mbps
Movie name : Трон: Повстання 1 серія
Encoded date : UTC 2018-05-19 12:27:35
Writing application : v22.0.0 ('At The End Of The World') 64-bit
Writing library : libebml v1.3.5 + v1.4.8
Attachements : cover.jpg
DURATION : 00:32:14.976000000
NUMBER_OF_FRAMES : 60468
NUMBER_OF_BYTES : 92878848
_STATISTICS_WRITING_APP : v22.0.0 ('At The End Of The World') 64-bit
_STATISTICS_WRITING_DATE_UT : 2018-05-19 12:27:35
_STATISTICS_TAGS : BPS DURATION NUMBER_OF_FRAMES NUMBER_OF_BYTES

Video
ID : 1
Format : AVC
Format/Info : Advanced Video Codec
Format profile : [email protected]
Format settings, CABAC : Yes
Format settings, ReFrames : 4 frames
Codec ID : V_MPEG4/ISO/AVC
Duration : 32mn 15s
Bit rate : 9 253 Kbps
Width : 1 920 pixels
Height : 1 080 pixels
Display aspect ratio : 16:9
Frame rate mode : Constant
Frame rate : 23.976 fps
Standard : NTSC
Color space : YUV
Chroma subsampling : 4:2:0
Bit depth : 8 bits
Scan type : Progressive
Bits/(Pixel*Frame) : 0.186
Stream size : 2.08 GiB (91%)
Language : Ukrainian
Default : Yes
Forced : No
Color range : Limited
Color primaries : BT.709
Transfer characteristics : BT.709
Matrix coefficients : BT.709

Audio #1
ID : 2
Format : AC-3
Format/Info : Audio Coding 3
Mode extension : CM (complete main)
Format settings, Endianness : Big
Codec ID : A_AC3
Duration : 32mn 15s
Bit rate mode : Constant
Bit rate : 320 Kbps
Channel(s) : 6 channels
Channel positions : Front: L C R, Side: L R, LFE
Sampling rate : 48.0 KHz
Compression mode : Lossy
Stream size : 73.8 MiB (3%)
Language : Ukrainian
Default : Yes
Forced : No

Audio #2
ID : 3
Format : AC-3
Format/Info : Audio Coding 3
Mode extension : CM (complete main)
Format settings, Endianness : Big
Codec ID : A_AC3
Duration : 32mn 15s
Bit rate mode : Constant
Bit rate : 384 Kbps
Channel(s) : 6 channels
Channel positions : Front: L C R, Side: L R, LFE
Sampling rate : 48.0 KHz
Compression mode : Lossy
Stream size : 88.6 MiB (4%)
Language : English
Default : No
Forced : No
Скріншоти
Джерело: &
Особиста оцінка: 8 - мені сподобалося


Золотий реліз (завантажене не впливає на рейтинг)
 Трекер:    Зареєстрований   

Завантажити / скачати мультфільм українською



відео для новачків



 Зареєстрований:   2018-05-23 17:44
 Розмір:   2.29 GB 
 Оцінка мультсеріалу:   8.3/10 (Голосів: 3)
   
Ваш часовий пояс: GMT + 2 Години

Нова тема   Відповісти