Пастка для котів / Cat City / Macskafogó (1986) DVDUpscale 768p-mini 2xUkr/Hun

Нові коментарі

Нова тема   Відповісти
Автор Повідомлення
urij546724 
Відео Гуртом - фільмокрай
Відео Гуртом - фільмокрай


З нами з: 16.03.10
Востаннє: 26.02.21
Повідомлень: 5772

2018-05-22 16:38  
Пастка для котів / Cat City / Macskafogó (1986) DVDUpscale 768p-mini 2xUkr/Hun

Пастка для котів / Cat City / Macskafogó (1986) DVDUpscale 768p-mini 2xUkr/Hun


Жанр: анімація, пригодницький, комедія, кримінальний, сімейний, фантастика
Країна: Угорщина, Канада, Західна Німеччина



Кіностудія / кінокомпанія: Pannónia Filmstúdió, Sefel Pictures International, Infafilm GmbH
Режисер: Бела Терновскі / Béla Ternovszky
Актори: Міклош Бенедек (Miklós Benedek), Гюла Бодрогі (Gyula Bodrogi), Ілона Береш (Ilona Béres), Петер Гауманн (Péter Haumann), Андраш Керн (András Kern), Ференц Каллаї (Ferenc Kállai)...

Сюжет:
У вісімдесятому році від Різдва Мікі Мауса, кровожерливі мультинаціональні бандформування котів планети Ікс вирішили раз і назавжди винищити добропорядних мишей. Але мишачий науковець, професор Фушимиші, винайшов зброю, що здатна покласти край котячому пануванню. Тож Інтермиша викликає свого найкращого агента у відставці Ніка Грабовського, аби він дістав креслення зброї. А щоб відвернути від нього небажану увагу котів, на завдання відряджають іще одного агента, сержанта на прізвисько «Лінивий Дік».


Тривалість: 01:31:51
Якість: DVDUpscale 768p-mini від EvGaS'а
Відео:
кодек: x.264
розмір кадру: 1024 х 768
бітрейт: 3000 кб/с
частота кадрів: 23.976 к/с (fps)

Аудіо #1:
мова: українська
переклад: багатоголосий закадровий
кодек: 2.0
бітрейт: 192 кб/с
озвучено: Омікрон за підтримки hurtom.com

Аудіо #2:
мова: українська
переклад: двоголосий закадровий
кодек: 2.0
бітрейт: 192 кб/с
запис звуку з каналу: Малятко
примітка: канал транслював скорочену версію, тому на пропущене вставлено озвучку студії Омікрон.
назва доріжки на сервері: Macskafogo.(1986).01h31m51s.[Maliatko.2.0-192].23.976fps.[Hurtom-urij546724].
Час вставок озвучки студії Омікрон:

1) з 00:11:31-00:11:41
2) з 00:12:30-00:12:44
3) з 00:15:48-00:17:13
4) з 00:20:36-00:20:58
5) з 00:42:30-00:44:09
6) з 00:53:08-00:54:30
Аудіо #3:
мова: угорська
переклад: оригінал
кодек: 2.0
бітрейт: 192 кб/с
Media info:
General
Unique ID : 224167882341374310650737764212922851508 (0xA8A529E95D5D09B79108D947E6EB20B4)
Format :
Format version : Version 2
File size : 2.30 GiB
Duration : 1 h 31 min
Overall bit rate : 3 577 kb/s
Movie name : Macskafogó (1986) [ukr.Omikron_ukr.Maliatko_hun_AC3] DVDUpscale 768p [Hurtom] by urij546724
Encoded date : UTC 2018-05-22 13:45:53
Writing application : v2.9.7 ('Tenderness') built on Jul 1 2009 18:43:35
Writing library : libebml v0.7.7 + v0.8.1

Video
ID : 1
Format : AVC
Format/Info : Advanced Video Codec
Format profile : [email protected]
Format settings : CABAC / 10 Ref Frames
Format settings, CABAC : Yes
Format settings, ReFrames : 10 frames
Codec ID : V_MPEG4/ISO/AVC
Duration : 1 h 31 min
Bit rate : 3 000 kb/s
Width : 1 024 pixels
Height : 768 pixels
Display aspect ratio : 4:3
Frame rate mode : Constant
Frame rate : 23.976 (23976/1000) FPS
Color space : YUV
Chroma subsampling : 4:2:0
Bit depth : 8 bits
Scan type : Progressive
Bits/(Pixel*Frame) : 0.159
Stream size : 1.86 GiB (81%)
Title : Macskafogó (1986) DVDUpscale 768p [Hurtom]
Writing library : core 146 r2538 121396c
Encoding settings : cabac=1 / ref=10 / deblock=1:2:1 / analyse=0x3:0x133 / me=umh / subme=9 / psy=1 / psy_rd=1.00:0.20 / mixed_ref=1 / me_range=32 / chroma_me=1 / trellis=2 / 8x8dct=1 / cqm=0 / deadzone=21,11 / fast_pskip=1 / chroma_qp_offset=-3 / threads=8 / lookahead_threads=1 / sliced_threads=0 / nr=0 / decimate=1 / interlaced=0 / bluray_compat=0 / constrained_intra=0 / bframes=5 / b_pyramid=2 / b_adapt=2 / b_bias=0 / direct=1 / weightb=1 / open_gop=0 / weightp=2 / keyint=250 / keyint_min=23 / scenecut=40 / intra_refresh=0 / rc_lookahead=60 / rc=abr / mbtree=1 / bitrate=3000 / ratetol=1.0 / qcomp=0.60 / qpmin=0 / qpmax=69 / qpstep=4 / ip_ratio=1.40 / aq=1:1.00
Language : Ukrainian
Default : Yes
Forced : No
Statistics Tags Issue : v8.2.0 ('World of Adventure') 32bit 2016-03-31 03:07:16 / v2.9.7 ('Tenderness') built on Jul 1 2009 18:43:35 2018-05-22 13:45:53
FromStats_BitRate : 2967031
FromStats_Duration : 01:31:51.971000000
FromStats_FrameCount : 132156
FromStats_StreamSize : 2044274068

Audio #1
ID : 2
Format : AC-3
Format/Info : Audio Coding 3
Codec ID : A_AC3
Duration : 1 h 31 min
Bit rate mode : Constant
Bit rate : 224 kb/s
Channel(s) : 2 channels
Channel positions : Front: L R
Sampling rate : 48.0 kHz
Frame rate : 31.250 FPS (1536 SPF)
Bit depth : 16 bits
Compression mode : Lossy
Stream size : 147 MiB (6%)
Title : Українська доріжка студії Омікрон
Language : Ukrainian
Service kind : Complete Main
Default : Yes
Forced : Yes
Statistics Tags Issue : v8.2.0 ('World of Adventure') 32bit 2016-03-31 03:07:16 / v2.9.7 ('Tenderness') built on Jul 1 2009 18:43:35 2018-05-22 13:45:53
FromStats_BitRate : 224000
FromStats_Duration : 01:31:51.872000000
FromStats_FrameCount : 172246
FromStats_StreamSize : 154332416

Audio #2
ID : 3
Format : AC-3
Format/Info : Audio Coding 3
Codec ID : A_AC3
Duration : 1 h 31 min
Bit rate mode : Constant
Bit rate : 192 kb/s
Channel(s) : 2 channels
Channel positions : Front: L R
Sampling rate : 48.0 kHz
Frame rate : 31.250 FPS (1536 SPF)
Bit depth : 16 bits
Compression mode : Lossy
Stream size : 126 MiB (5%)
Title : Українська доріжка з каналу Малятко
Language : Ukrainian
Service kind : Complete Main
Default : No
Forced : No

Audio #3
ID : 4
Format : AC-3
Format/Info : Audio Coding 3
Codec ID : A_AC3
Duration : 1 h 31 min
Bit rate mode : Constant
Bit rate : 192 kb/s
Channel(s) : 2 channels
Channel positions : Front: L R
Sampling rate : 48.0 kHz
Frame rate : 31.250 FPS (1536 SPF)
Bit depth : 16 bits
Compression mode : Lossy
Stream size : 126 MiB (5%)
Title : Оригінальна доріжка
Language : Hungarian
Service kind : Complete Main
Default : No
Forced : No
Statistics Tags Issue : v8.2.0 ('World of Adventure') 32bit 2016-03-31 03:07:16 / v2.9.7 ('Tenderness') built on Jul 1 2009 18:43:35 2018-05-22 13:45:53
FromStats_BitRate : 192000
FromStats_Duration : 01:31:51.968000000
FromStats_FrameCount : 172249
FromStats_StreamSize : 132287232
Скріншоти:





Семпл
Джерело 1_________Джерело 2_________Джерело 3_________Джерело 4_________Джерело 5
У випадку, якщо з усіх джерел семпл видалять, прохання повідомити мені у ПРИВАТ


Подяка:

1. Пану Hulk1987 за запис звуку з каналу Малятко.
2. Усім, хто долучився до озвучення і створення попередніх релізів.


Джерело:


Авторський реліз (завантажувати можна без реєстрації)
 Трекер:    Зареєстрований   

Завантажити / скачати мультфільм українською



відео для новачків



 Зареєстрований:   2018-05-22 16:38
 Розмір:   2.3 GB 
 Оцінка мультфільму:   9.8/10 (Голосів: 32)
 Прохання залишати коментарі і не тікати з роздачі.
   
Інші релізи
   Пастка для котів / Cat City / Macskafogó (1986) DVD9 Ukr/Hun Hentaihunter  3 / 0   5.89 GB   2016-04-06 15:17 
   Пастка для котів / Cat City / Macskafogó (1986) Omikron  15 / 0   1.45 GB   2016-03-29 10:53 
igor911 
Модератор відео


З нами з: 18.01.08
Востаннє: 27.02.21
Повідомлень: 15555

2018-05-22 16:44  
urij546724, прохання зазначити автора ріпу.
urij546724 
Відео Гуртом - фільмокрай
Відео Гуртом - фільмокрай


З нами з: 16.03.10
Востаннє: 26.02.21
Повідомлень: 5772

2018-05-22 16:48  
igor911 написано:
прохання зазначити автора ріпу.

urij546724 написано:
DVDUpscale 768p-mini by EvGaS

dimic 
Частий відвідувач


З нами з: 12.07.09
Востаннє: 23.02.21
Повідомлень: 39

2018-05-23 00:20  
urij546724
дякую за найкращий мультик дитинства !

piznajko 
Відео Гуртом - субтитрування
Відео Гуртом - субтитрування


З нами з: 24.02.09
Востаннє: 17.11.20
Повідомлень: 2196

2018-05-29 10:29  
urij546724 написано:

1) з 00:11:31-00:11:41
2) з 00:12:30-00:12:44
3) з 00:15:48-00:17:13
4) з 00:20:36-00:20:58
5) з 00:42:30-00:44:09
6) з 00:53:08-00:54:30


Оце дає Малятко - не могли озвучить "оригінальну" версію, ніт тре їм лише цензуровану радянську версію озвучувать, коротшу десь на ~5 хвилин.

Додано через 5 хвилин 58 секунд:

FYI сирий звук звідси https://toloka.to/t79228 (реліз ще 2010 року, так шо я розумію запис був у 2009 чи 2010)?

urij546724 
Відео Гуртом - фільмокрай
Відео Гуртом - фільмокрай


З нами з: 16.03.10
Востаннє: 26.02.21
Повідомлень: 5772

2018-05-31 06:28  
piznajko написано:
не могли озвучить

Що легше, те й озвучують напевне. Вже кілька релізів не став доробляти, бо сильно порізані + сирі доріжки маютьпевні дефекти і дуже важко звести. Наприклад мультик Саффі є, але теж порізана версія, ще й частота трохи плаває. Посидів над тою доріжкою годину, знервувався тільки і відклав до кращих часів.

piznajko написано:
запис був у 2009 чи 2010

Ну згідно даних Халка запис за 2010 рік, а коли озвучено, то хто знає. Скоріш за все озвучка КІТ, тож може бути і старіша.

Ваш часовий пояс: GMT + 2 Години

Нова тема   Відповісти