Світанок мерців [Режисерська версія] / Dawn of the Dead [Unrated Director's Cut] (2004) AVC Ukr/Eng | Sub Ukr/Eng

Нові коментарі

Нова тема   Відповісти
Автор Повідомлення
staf777 
Відео Гуртом - підтримка та поширення
Відео Гуртом - підтримка та поширення


З нами з: 16.11.16
Востаннє: 20.04.19
Повідомлень: 2267

2018-05-22 15:45  
Світанок мерців [Режисерська версія] / Dawn of the Dead [Unrated Director's Cut] (2004) AVC Ukr/Eng | Sub Ukr/Eng



Жанр: екшн, жахи, фантастика, трилер
Країна: США, Канада, Японія, Франція



Кінокомпанія: Strike Entertainment, New Amsterdam Entertainment, Metropolitan Filmexport
Режисер: Зак Снайдер / Zack Snyder
Актори: Сара Поллі / Sarah Polley, Вінґ Реймс / Ving Rhames, Джейк Вебер / Jake Weber, Мехі Файфер / Mekhi Phifer, Ті Баррелл / Ty Burrell, Майкл Келлі / Michael Kelly, Кевін Зеґерс / Kevin Zegers, Майкл Беррі / Michael Barry, Лінді Бут / Lindy Booth та інші.

Сюжет:
В той час, як Америка здригається від раптового нашестя мільйонів мертвяків, маленька група уцілілих людей намагається знайти притулок і захист у величезній будівлі торгового центру. Але вони недовго зможуть протистояти нападу зомбі. Розуміючи, що час закінчується, герої роблять спробу втечі на безпечний острів, але чи зможуть вони добратися туди живими?


Тривалість: 01:49:11
Якість: AVC
Відео:
кодек:
розмір кадру: 1136x480
бітрейт: 2466 кб/с

Аудіо # 1:
мова: українська
переклад: багатоголосий закадровий
кодек: 2.0
бітрейт: 192 кб/с

Аудіо # 2:
мова: англійська
переклад: оригінал
кодек: 5.1
бітрейт: 448 кб/с

Джерело озвучення:


Субтитри # 1-2: (форсовані, повні)
мова: українська
тип: програмні (м'які)
формат: *.srt
переклад з російської: Andriy063

Субтитри # 3:
мова: англійська
тип: програмні (м'які)
формат: *.srt
Info
General
Unique ID : 230181649284055009400977992898077637908 (0xAD2B5F838302CE8BBA98D3F389A5BD14)
Complete name : H:\Майбутні релізи\Dawn of the Dead [Unrated Director's Cut] (2004) AVC [UKR_ENG] [Hurtom].
Format :
Format version : Version 4 / Version 2
File size : 2.37 GiB
Duration : 1 h 49 min
Overall bit rate : 3 108 kb/s
Movie name : Dawn of the Dead [Unrated Director's Cut] (2004) AVC [UKR_ENG] [Hurtom]
Encoded date : UTC 2018-05-22 13:39:26
Writing application : v9.8.0 ('Kuglblids') 64bit
Writing library : libebml v1.3.4 + v1.4.5
Cover : Yes
Attachments : cover.jpg

Video
ID : 1
Format : AVC
Format/Info : Advanced Video Codec
Format profile : [email protected]
Format settings : CABAC / 8 Ref Frames
Format settings, CABAC : Yes
Format settings, ReFrames : 8 frames
Codec ID : V_MPEG4/ISO/AVC
Duration : 1 h 49 min
Bit rate : 2 466 kb/s
Width : 1 136 pixels
Height : 480 pixels
Display aspect ratio : 2.35:1
Frame rate mode : Constant
Frame rate : 23.976 (24000/1001) FPS
Color space : YUV
Chroma subsampling : 4:2:0
Bit depth : 8 bits
Scan type : Progressive
Bits/(Pixel*Frame) : 0.189
Stream size : 1.88 GiB (79%)
Writing library : core 138 r2358 9e941d1
Encoding settings : cabac=1 / ref=9 / deblock=1:-3:-3 / analyse=0x3:0x133 / me=umh / subme=11 / psy=1 / psy_rd=1.10:0.05 / mixed_ref=1 / me_range=32 / chroma_me=1 / trellis=2 / 8x8dct=1 / cqm=0 / deadzone=21,11 / fast_pskip=0 / chroma_qp_offset=-2 / threads=3 / lookahead_threads=1 / sliced_threads=0 / nr=0 / decimate=0 / interlaced=0 / bluray_compat=0 / constrained_intra=0 / bframes=9 / b_pyramid=1 / b_adapt=2 / b_bias=0 / direct=3 / weightb=1 / open_gop=0 / weightp=1 / keyint=250 / keyint_min=23 / scenecut=40 / intra_refresh=0 / rc_lookahead=40 / rc=2pass / mbtree=1 / bitrate=2466 / ratetol=1.0 / qcomp=0.60 / qpmin=0 / qpmax=51 / qpstep=4 / cplxblur=22.0 / qblur=0.5 / vbv_maxrate=65000 / vbv_bufsize=75000 / nal_hrd=none / ip_ratio=1.30 / aq=1:0.80
Language : English
Default : Yes
Forced : No

Audio #1
ID : 2
Format : AC-3
Format/Info : Audio Coding 3
Codec ID : A_AC3
Duration : 1 h 49 min
Bit rate mode : Constant
Bit rate : 192 kb/s
Channel(s) : 2 channels
Channel positions : Front: L R
Sampling rate : 48.0 kHz
Frame rate : 31.250 FPS (1536 SPF)
Bit depth : 16 bits
Compression mode : Lossy
Stream size : 150 MiB (6%)
Title : [UA-MVO-NLO]
Language : Ukrainian
Service kind : Complete Main
Default : Yes
Forced : Yes

Audio #2
ID : 5
Format : AC-3
Format/Info : Audio Coding 3
Codec ID : A_AC3
Duration : 1 h 49 min
Bit rate mode : Constant
Bit rate : 448 kb/s
Channel(s) : 6 channels
Channel positions : Front: L C R, Side: L R, LFE
Sampling rate : 48.0 kHz
Frame rate : 31.250 FPS (1536 SPF)
Bit depth : 16 bits
Compression mode : Lossy
Stream size : 350 MiB (14%)
Language : English
Service kind : Complete Main
Default : No
Forced : No

Text #1
ID : 3
Format : UTF-8
Codec ID : S_TEXT/UTF8
Codec ID/Info : UTF-8 Plain Text
Duration : 1 h 14 min
Bit rate : 7 b/s
Count of elements : 81
Stream size : 4.26 KiB (0%)
Language : Ukrainian
Default : Yes
Forced : Yes

Text #2
ID : 4
Format : UTF-8
Codec ID : S_TEXT/UTF8
Codec ID/Info : UTF-8 Plain Text
Duration : 1 h 46 min
Bit rate : 120 b/s
Count of elements : 902
Stream size : 93.7 KiB (0%)
Language : Ukrainian
Default : No
Forced : No

Text #3
ID : 6
Format : UTF-8
Codec ID : S_TEXT/UTF8
Codec ID/Info : UTF-8 Plain Text
Duration : 1 h 46 min
Bit rate : 46 b/s
Count of elements : 1185
Stream size : 36.7 KiB (0%)
Language : English
Default : No
Forced : No
Скріншоти




Запис з ТБ: slavik_v_z, Sando7, POMEO;
Синхронізація: patriot2305, постер - Zhuk_Mikola.

Джерело: &
Особиста оцінка: 8 - мені сподобалося


Срібний реліз (на рейтинг впливає 50% завантаженого)
 Трекер:    Зареєстрований   

Завантажити / скачати фільм українською



відео для новачків



 Зареєстрований:   2018-05-22 17:09
 Розмір:   2.37 GB 
 Оцінка фільму:   8.1/10 (Голосів: 13)
   
Ваш часовий пояс: GMT + 2 Години

Нова тема   Відповісти