Анігіляція / Annihilation (2018) Remux 1080p Ukr/Eng | Sub Ukr/Eng

Нові коментарі

Нова тема   Відповісти
Автор Повідомлення
Anonymous 







2018-05-22 15:06  
Анігіляція / Annihilation (2018) Remux 1080p Ukr/Eng | Sub Ukr/Eng

Анігіляція / Annihilation (2018) Remux 1080p Ukr/Eng | Sub Ukr/Eng


Жанр: трилер, фантастика
Країна: США, Велика Британія



Кінокомпанія: DNA Films, Paramount Pictures, Scott Rudin Productions
Режисер: Алекс Ґарленд
Актори: Наталі Портман, Дженніфер Джейсон Лі, Тесса Томпсон, Джина Родрігез, Оскар Айзек, Соноя Мідзуно, Тува Новотни, Космо Джарвіс та інші

Сюжет:
Ніхто не знає, звідки взялася Зона Ікс — смертельно небезпечна територія, що кишить аномальними явищами. Там не бігають чудовиська, звідти не приносять трофеїв, і мисливці за наживою там не промишляють. Таємна урядова організація відправляє в Зону одну дослідницьку експедицію за іншою, але найчастіше ті не повертаються, або повертаються, але невловимо і страшно змінившись. Чи зможе нова, дванадцята експедиція в Зону домогтися того, що не вдалося попередникам і розкрити таємниці цього проклятого місця?


Тривалість: 01:55:00
Якість: Remux
Відео:
кодек:
розмір кадру: 1920x1080
бітрейт: 25810 кб/с

Аудіо # 1:
мова: українська
переклад: багатоголосий закадровий
кодек: 5.1
бітрейт: 384 кб/с
Джерело озвучення:
Студія "НеЗупиняйПродакшн"


Аудіо # 2:
мова: англійська
переклад: оригінал
кодек: Atmos / TrueHD 7.1
бітрейт: 4062 кб/с
Джерело озвучення:


Аудіо # 3:
мова: англійська
переклад: оригінал
кодек: 5.1
бітрейт: 640 кб/с
Джерело озвучення:


Субтитри:
мова: українська
тип: програмні (м'які)
формат: *.srt

Субтитри(Full, SHD):
мова: англійська
тип: програмні (м'які)
формат: *.srt
Info
General
Unique ID : 83180117324629618662070924054359077295 (0x3E93E86A62B3D66790DB0F84F9F271AF)
Format :
Format version : Version 4 / Version 2
File size : 24.9 GiB
Duration : 1 h 55 min
Overall bit rate mode : Variable
Overall bit rate : 30.9 Mb/s
Movie name : Анігіляція / Annihilation
Encoded date : UTC 2018-05-22 11:40:24
Writing application : v9.8.0 ('Kuglblids') 64bit
Writing library : libebml v1.3.4 + v1.4.5
Cover : Yes
Attachments : cover.jpg

Video
ID : 1
Format : AVC
Format/Info : Advanced Video Codec
Format profile : [email protected]
Format settings, CABAC : Yes
Format settings, ReFrames : 4 frames
Codec ID : V_MPEG4/ISO/AVC
Duration : 1 h 55 min
Bit rate mode : Variable
Bit rate : 25.8 Mb/s
Maximum bit rate : 30.4 Mb/s
Width : 1 920 pixels
Height : 1 080 pixels
Display aspect ratio : 16:9
Frame rate mode : Constant
Frame rate : 23.976 (24000/1001) FPS
Color space : YUV
Chroma subsampling : 4:2:0
Bit depth : 8 bits
Scan type : Progressive
Bits/(Pixel*Frame) : 0.519
Stream size : 20.7 GiB (83%)
Title : /AVC, 1080p, 16:9, 25810 kbps
Language : Ukrainian
Default : Yes
Forced : Yes

Audio #1
ID : 2
Format : AC-3
Format/Info : Audio Coding 3
Mode extension : CM (complete main)
Format settings, Endianness : Big
Codec ID : A_AC3
Duration : 1 h 55 min
Bit rate mode : Constant
Bit rate : 384 kb/s
Channel(s) : 6 channels
Channel positions : Front: L C R, Side: L R, LFE
Sampling rate : 48.0 kHz
Frame rate : 31.250 FPS (1536 spf)
Bit depth : 16 bits
Compression mode : Lossy
Delay relative to video : 8 ms
Stream size : 317 MiB (1%)
Title : Українська, "Не зупиняй Продакшн", , 6ch, 384 kbps
Language : Ukrainian
Default : Yes
Forced : Yes

Audio #2
ID : 3
Format : Atmos / TrueHD
Codec ID : A_TRUEHD
Duration : 1 h 55 min
Bit rate mode : Variable
Bit rate : 4 062 kb/s
Maximum bit rate : 7 278 kb/s
Channel(s) : Object Based / 8 channels
Channel positions : Object Based / Front: L C R, Side: L R, Back: L R, LFE
Sampling rate : / 48.0 kHz
Frame rate : 1 200.000 FPS (40 spf)
Compression mode : Lossless
Stream size : 3.26 GiB (13%)
Title : English, Original, Atmos/TrueHD, 8ch, 4062 kbps
Language : English
Default : No
Forced : No

Audio #3
ID : 4
Format : AC-3
Format/Info : Audio Coding 3
Mode extension : CM (complete main)
Format settings, Endianness : Big
Codec ID : A_AC3
Duration : 1 h 55 min
Bit rate mode : Constant
Bit rate : 640 kb/s
Channel(s) : 6 channels
Channel positions : Front: L C R, Side: L R, LFE
Sampling rate : 48.0 kHz
Frame rate : 31.250 FPS (1536 spf)
Bit depth : 16 bits
Compression mode : Lossy
Stream size : 526 MiB (2%)
Title : English, Original, , 6ch, 640 kbps
Language : English
Default : No
Forced : No

Text #1
ID : 5
Format : UTF-8
Codec ID : S_TEXT/UTF8
Codec ID/Info : UTF-8 Plain Text
Duration : 1 h 47 min
Bit rate : 56 b/s
Count of elements : 926
Stream size : 44.2 KiB (0%)
Title : Українські, Повні
Language : Ukrainian
Default : Yes
Forced : Yes

Text #2
ID : 6
Format : UTF-8
Codec ID : S_TEXT/UTF8
Codec ID/Info : UTF-8 Plain Text
Duration : 1 h 46 min
Bit rate : 34 b/s
Count of elements : 940
Stream size : 27.1 KiB (0%)
Title : English, Full
Language : English
Default : No
Forced : No

Text #3
ID : 7
Format : UTF-8
Codec ID : S_TEXT/UTF8
Codec ID/Info : UTF-8 Plain Text
Duration : 1 h 47 min
Bit rate : 40 b/s
Count of elements : 1098
Stream size : 32.2 KiB (0%)
Title : English, SDH
Language : English
Default : No
Forced : No

Menu
00:00:00.000 : en:Chapter 01
00:05:09.309 : en:Chapter 02
00:11:39.156 : en:Chapter 03
00:17:06.692 : en:Chapter 04
00:24:08.655 : en:Chapter 05
00:28:59.446 : en:Chapter 06
00:37:24.242 : en:Chapter 07
00:41:59.517 : en:Chapter 08
00:49:11.448 : en:Chapter 09
00:56:06.404 : en:Chapter 10
01:03:22.298 : en:Chapter 11
01:10:25.012 : en:Chapter 12
01:17:21.928 : en:Chapter 13
01:22:20.477 : en:Chapter 14
01:30:26.295 : en:Chapter 15
01:38:48.589 : en:Chapter 16
01:43:58.357 : en:Chapter 17
01:48:14.279 : en:Chapter 18
01:55:00.184 : en:Chapter 19
Скріншоти
За повні українські субтитри подяка пану ivadm, постери - mishka1998, -_-B_E_N_D_E_R-_-


Золотий реліз (завантажене не впливає на рейтинг)
 Трекер:    Зареєстрований   

Завантажити / скачати фільм українською



відео для новачків



 Зареєстрований:   2018-05-22 15:06
 Розмір:   24.88 GB 
 Оцінка фільму:   6.5/10 (Голосів: 22)
   
Інші релізи
igor911 
Відео Гуртом
Відео Гуртом


З нами з: 18.01.08
Востаннє: 17.10.18
Повідомлень: 11241

2018-05-22 15:22  
Можливо буде українська доріжка в -HD.
Бееендер 
Забанено
Забанено


З нами з: 22.05.18
Востаннє: 26.05.18
Повідомлень: 23

2018-05-22 16:08  
А в TrueHD, 7.1 ні як зібрати?
Electroz 
Відео Гуртом - підтримка та поширення
Відео Гуртом - підтримка та поширення


З нами з: 18.09.14
Востаннє: 17.10.18
Повідомлень: 3024

2018-05-22 16:18  
Бееендер
буде доріжка 7.1

Бееендер 
Забанено
Забанено


З нами з: 22.05.18
Востаннє: 26.05.18
Повідомлень: 23

2018-05-22 16:28  
Electroz написано:
А в TrueHD

А в А в TrueHD?

11FrYkT 
Модератор відео


З нами з: 20.02.11
Востаннє: 17.10.18
Повідомлень: 5079

2018-05-22 16:30  
Anonymous , тож писали що буде ДТС, для чого зараз викладати?
tarlviv 
Новенький


З нами з: 03.05.12
Востаннє: 16.10.18
Повідомлень: 21

2018-05-27 17:06  
Світова оцінка 7,0 ? За що?
Макусимум 5 - 6 ( моя оцінка 5 і не більше) за сюжет.
Спецефекти суперові на 9 тягнуть.
Роль акторів на 8 дотягує.
Дивитись можна, але не варто чекати якогось суперсюжету.

+380954897458 
Свій


З нами з: 02.06.17
Востаннє: 17.10.18
Повідомлень: 73

2018-05-28 15:47  
tarlviv
Спочатку рейтинг взагалі був 7.8, що мене вельми радувало, потім поступово знизився. Мені надзвичайно сподобалося. Двічі вже передивлявся. Поряд з "Блейд раннером 2049" - один з найюлюбленіших фільмів останнього часу. Кіно не для всіх, не для любителів розваг.

kotsjkyy 
Новенький


З нами з: 10.02.12
Востаннє: 14.10.18
Повідомлень: 5

2018-05-31 11:23  
ну переклад там фист, ще б казали ДОКТОРИХА та ВЧЕНИХА. Не міг спокійно дидивтись включив англійську мову.
Mr_GoldMan 
Новенький


З нами з: 01.12.13
Востаннє: 10.10.18
Повідомлень: 13

2018-06-18 16:19  
Плюсую коменту вище!!! Навіщо так знущатися над українською мовою??? Вирішили догодити феміністичному крилу??? Я не сексист, але ващі "Фізикиня", "Психологиня" і т.д. настільки різали слух, що вперше вимкнув фільм з українським дубляжем саме через дубляж. Ніколи не було притензій до "НеЗупиняйПродакшн", завжи дуже класний дубляж з класними голосами. Надіюсь це останній такий експеремент у них.
js 
Новенький


З нами з: 19.07.08
Востаннє: 16.10.18
Повідомлень: 3

2018-06-28 22:27  
Як би це сказати... Це навіть не лайно, це тупо якийсь беззмістовний наркотріп
+380954897458 
Свій


З нами з: 02.06.17
Востаннє: 17.10.18
Повідомлень: 73

2018-06-29 23:59  
js
Один з кращих фільмів року. Не подобається- просто тримайте це при собі і не псуйте повітря навколо.

-_-В_E_N_D_Е_R-_- 
Забанено
Забанено


З нами з: 11.07.18
Востаннє: 23.08.18
Повідомлень: 547

2018-08-19 16:36  
11FrYkT написано:
тож писали що буде ДТС, для чого зараз викладати?

Три місяця пройшло, де дтс?

0verlord 
Новенький


З нами з: 02.01.15
Востаннє: 15.10.18
Повідомлень: 7

2018-08-23 00:44  
Фільм на 7/10. Озвучення - на п'ятірочку. Все нічого, але нащо ж так солов'їну паплюжити цими вашими "фізикинями", "геоморфологинями" та іншим шлаком... Чому "парамедик" як "парамедикиню" не переклали?)
juliette_dream 
Новенький


З нами з: 31.12.14
Востаннє: 30.09.18
Повідомлень: 3

2018-08-26 19:24  
Дуже рада фемінітивам! Коменти зверху веселять - тобто слова смартфон, торент і дефібріляція українську мову не паплюжать, а жіноче закінчення раптово кінець світу?) Тим паче, вчіть українську - фемінітиви притаманні українській історично.
0verlord 
Новенький


З нами з: 02.01.15
Востаннє: 15.10.18
Повідомлень: 7

2018-09-23 01:05  
juliette_dream, ваше суб'єктивне ставлення до фемінітивів не має ніякого відношення до актуального класифікатора професій. Так само, як смартфони, торенти і дефібріляції не мають відношення до теми фільму. А от комент вище - цілком собі. Фемінізм фемінізмом, а здоровий глузд ніхто не відміняв.
Ваш часовий пояс: GMT + 2 Години

Нова тема   Відповісти