Телепорт / Jumper (2008) Remux 1080p 2xUkr/Eng | Sub Ukr/Eng

Нові коментарі

Нова тема   Відповісти
Останній раз роздавалося ExtremeCat (2020-01-13)
Автор Повідомлення
IronBee 
Поважний учасник


З нами з: 08.02.10
Востаннє: 15.01.20
Повідомлень: 225

2018-05-22 10:26  
Телепорт / Jumper (2008) Remux 1080p 2xUkr/Eng | Sub Ukr/Eng

Телепорт / Jumper (2008) Remux 1080p 2xUkr/Eng | Sub Ukr/Eng
Альтернативний постер:



Жанр: фантастика, бойовик, трилер, пригодницький
Країна: США, Канада



Кінокомпанія: Twentieth Century Fox Film Corporation, Regency Enterprises, New Regency Pictures
Режисер: Даґ Лайман
Актори: Гайден Крістенсен / Hayden Christensen, Джеймі Белл / Jamie Bell, Рейчел Білсон / Rachel Bilson, Даян Лeйн / Diane Lane, Семюель Л. Джексон / Samuel L. Jackson та інші

Сюжет:
Підліток з неблагополучного району Девід Райс завжди вважав себе звичайним парубком, поки одного дня він не дізнався, що може переміщуватися у просторі. Нові здібності відкрили перед ним весь світ. Він може побувати в Нью-Йорку і Токіо, відвідати античні розвалини в Римі, побачити "дах світу" з гори Еверест, побачити 20 світанків і 20 заходів. І все — в один день. Тепер йому не потрібні гроші — він може узяти скільки хоче. Проте воднораз він виявляє, що став мішенню...


Тривалість: 01:28:20
Якість: Remux
Відео:
кодек:
розмір кадру: 1920 х 1080
бітрейт: 28,1 Mб/с

Аудіо # 1:
мова: українська | Blu-ray
переклад: професійний дубльований
кодек: 5.1
бітрейт: 448 кб/с

Аудіо # 2:
мова: українська | ICTV
переклад: двоголосий закадровий
кодек: 2.0
бітрейт: 192 кб/с

Аудіо # 3:
мова: англійська
переклад: оригінал
кодек: -HD MA 5.1
бітрейт: 3840 кб/с

Субтитри:
мова: українська
тип: пререндерні
формат: *.PGS

Субтитри:
мова: англійська
тип: пререндерні
формат: *.PGS
Info
General
Unique ID : 169417497715228999805144587537343056629 (0x7F749F89BA044A66440D2E0E1E1C0AF5)
Complete name : D:\Films\Телепорт Jumper (2008) Remux 1080p 2xUkrEng Sub UkrEng[Hurtom].
Format :
Format version : Version 4 / Version 2
File size : 20.2 GiB
Duration : 1 h 28 min
Overall bit rate mode : Variable
Overall bit rate : 32.7 Mb/s
Encoded date : UTC 2018-05-21 18:39:01
Writing application : v23.0.0 ('The Bride Said No') 64-bit
Writing library : libebml v1.3.6 + v1.4.9

Video
ID : 1
Format : AVC
Format/Info : Advanced Video Codec
Format profile : [email protected]
Format settings : CABAC / 2 Ref Frames
Format settings, CABAC : Yes
Format settings, ReFrames : 2 frames
Codec ID : V_MPEG4/ISO/AVC
Duration : 1 h 28 min
Bit rate mode : Variable
Bit rate : 28.1 Mb/s
Width : 1 920 pixels
Height : 1 080 pixels
Display aspect ratio : 16:9
Frame rate mode : Constant
Frame rate : 23.976 (24000/1001) FPS
Color space : YUV
Chroma subsampling : 4:2:0
Bit depth : 8 bits
Scan type : Progressive
Bits/(Pixel*Frame) : 0.566
Stream size : 17.4 GiB (86%)
Default : Yes
Forced : No

Audio #1
ID : 2
Format : AC-3
Format/Info : Audio Coding 3
Codec ID : A_AC3
Duration : 1 h 28 min
Bit rate mode : Constant
Bit rate : 448 kb/s
Channel(s) : 6 channels
Channel positions : Front: L C R, Side: L R, LFE
Sampling rate : 48.0 kHz
Frame rate : 31.250 FPS (1536 SPF)
Bit depth : 16 bits
Compression mode : Lossy
Stream size : 283 MiB (1%)
Title : 5.1 448 кб/с професійний дубльований Blu-ray
Language : Ukrainian
Service kind : Complete Main
Default : Yes
Forced : No

Audio #2
ID : 3
Format : AC-3
Format/Info : Audio Coding 3
Codec ID : A_AC3
Duration : 1 h 28 min
Bit rate mode : Constant
Bit rate : 192 kb/s
Channel(s) : 2 channels
Channel positions : Front: L R
Sampling rate : 48.0 kHz
Frame rate : 31.250 FPS (1536 SPF)
Bit depth : 16 bits
Compression mode : Lossy
Stream size : 121 MiB (1%)
Title : 2.0 192 кб/с двоголосий закадровий ICTV
Language : Ukrainian
Service kind : Complete Main
Default : No
Forced : No

Audio #3
ID : 4
Format :
Format/Info : Digital Theater Systems
Format profile : MA / Core
Codec ID : A_DTS
Duration : 1 h 28 min
Bit rate mode : Variable / Constant
Bit rate : 3 840 kb/s / 1 509 kb/s
Channel(s) : 6 channels
Channel positions : Front: L C R, Side: L R, LFE
Sampling rate : 48.0 kHz
Frame rate : 93.750 FPS (512 SPF)
Bit depth : 24 bits
Compression mode : Lossless / Lossy
Stream size : 2.38 GiB (12%)
Language : English
Default : No
Forced : No

Text #1
ID : 5
Format : PGS
Muxing mode : zlib
Codec ID : S_HDMV/PGS
Codec ID/Info : Picture based subtitle format used on BDs/HD-DVDs
Duration : 1 h 22 min
Bit rate : 25.7 kb/s
Count of elements : 1796
Stream size : 15.3 MiB (0%)
Language : Ukrainian
Default : Yes
Forced : No

Text #2
ID : 6
Format : PGS
Muxing mode : zlib
Codec ID : S_HDMV/PGS
Codec ID/Info : Picture based subtitle format used on BDs/HD-DVDs
Duration : 1 h 22 min
Bit rate : 29.3 kb/s
Count of elements : 1784
Stream size : 17.4 MiB (0%)
Language : English
Default : No
Forced : No
Скріншоти



Подяка п.Technomate за запис з ТБ, п.karvai0 за синхронізацію аудіо №2, п.Gelios за альтернативний постер.

Джерело: &
Особиста оцінка: 9 - давно не бачив настільки якісне кіно


Золотий реліз (завантажене не впливає на рейтинг)
 Трекер:    Зареєстрований   

Завантажити / скачати фільм українською



відео для новачків



 Зареєстрований:   2018-05-22 10:26
 Розмір:   20.15 GB 
 Оцінка фільму:   9.9/10 (Голосів: 7)
   
Інші релізи
   Телепорт / Jumper (2008) AVC [Open Matte] 2xUkr/Eng | Sub Ukr/Eng staf777  2 / 0   2.31 GB   2018-10-02 20:54 
   Телепорт / Jumper (2008) 1080p [Open Matte] H.265 2xUkr/Eng | Sub Ukr/Eng ukr_anonymous  5 / 0   6.28 GB   2018-08-05 02:02 
   Телепорт / Jumper (2008) 1080p 3D [Half OverUnder] Ukr/Eng | Sub Ukr/Eng GEORGKys  0 / 0   8.14 GB   2016-02-23 20:36 
   Телепорт / Jumper (2008) 1080p Ukr/Eng | Sub Ukr/Eng HI-FI SOUND  2 / 0   7.46 GB   2015-03-11 20:27 
   Телепорт / Jumper (2008) [Open Matte] 2xUkr/Eng | Sub Ukr/Eng omm  5 / 0   1.85 GB   2014-08-17 18:29 
   Телепорт / Jumper (2008) 2xUkr/Eng | Ukr/Eng karvai0  4 / 0   1.82 GB   2012-07-04 00:00 
   Телепорт / Jumper (2008) 720 Ukr/Eng | Ukr/Eng Гірський Кришталь  2 / 0   4.36 GB   2011-03-21 18:00 
   Телепорт / Jumper (2008) MutuLI  3 / 0   1.46 GB   2010-03-31 19:10 
igor911 
Модератор відео


З нами з: 18.01.08
Востаннє: 17.01.20
Повідомлень: 13898

2018-05-22 10:59  
Цікаво, що на 3Д блуреї повний кадр, а не обрубок:


Jumper 2008 1080p 3D Blu-ray AVC -HD MA 5.1-HDWinG

Ваш часовий пояс: GMT + 2 Години

Нова тема   Відповісти