Дикі предки / Early Man (2018) Remux 1080p Ukr/Eng | Sub Eng

Нові коментарі

Нова тема   Відповісти
Автор Повідомлення
staf777 
Відео Гуртом - підтримка та поширення
Відео Гуртом - підтримка та поширення


З нами з: 16.11.16
Востаннє: 25.02.21
Повідомлень: 5053

2018-05-22 06:15  
Дикі предки / Early Man (2018) Remux 1080p Ukr/Eng | Sub Eng



«На межі століть легко потрапити в історію»



Жанр: анімація, пригодницький, комедія, фентезі, сімейний
Країна: США, Велика Британія, Франція



Кінокомпанія: Aardman Animations, Amazon Prime Instant Video, BFI's Film Found
Режисер: Нік Парк
Актори: Том Гіддлстон, Едді Редмейн, Мейсі Вільямс, Тімоті Сполл, Марк Уільямс, Міріам Маргуліс, Роб Брайдон, Нік Парк, Джонні Вегас

Сюжет:
Події «Диких предків» будуть розвиватися на зорі часів, коли по землі бігали динозаври і мамонти. Мультфільм розповість історію про те, як одна хоробра печерна людина об'єднує своє плем'я проти могутнього ворога і рятує день.


Тривалість: 01:28:40
Якість: Remux 1080p

Відео:
кодек:
розмір кадру: 1920x1080
бітрейт: 34,5 Mб/с

Аудіо # 1:
мова: українська
переклад: професійний дубльований | студія Pie Post Production
кодек: 5.1
бітрейт: 384 кб/с

Аудіо # 2:
мова: англійська
переклад: оригінал
кодек: TrueHD+Atmos 5.1
бітрейт: 4376 кб/с

Аудіо # 3:
мова: англійська
переклад: оригінал
кодек: 5.1
бітрейт: 448 кб/с

Субтитри:
мова: англійська
тип: програмні (м'які)
формат: *.srt
Info
Код:
General
Unique ID                   : 199456380993267935650071362229659323369 (0x960DE6D433057000A75C3876CE814BE9)
Complete name               : I:\Early Man (2018) Remux 1080p [Ukr][Eng][Sub Eng][Hurtom].
Format                      :
Format version              : Version 4 / Version 2
File size                   : 24.6 GiB
Duration                    : 1 h 28 min
Overall bit rate mode       : Variable
Overall bit rate            : 39.8 Mb/s
Movie name                  : Early Man (2018) Remux 1080p [Ukr][Eng][Sub Eng][Hurtom]
Encoded date                : UTC 2018-05-22 07:44:49
Writing application         : v9.8.0 ('Kuglblids') 64bit
Writing library             : libebml v1.3.4 + v1.4.5
Cover                       : Yes
Attachments                 : cover.jpg

Video
ID                          : 1
Format                      : AVC
Format/Info                 : Advanced Video Codec
Format profile              : [email protected]
Format settings             : CABAC / 4 Ref Frames
Format settings, CABAC      : Yes
Format settings, ReFrames   : 4 frames
Codec ID                    : V_MPEG4/ISO/AVC
Duration                    : 1 h 28 min
Bit rate mode               : Variable
Bit rate                    : 34.5 Mb/s
Maximum bit rate            : 37.0 Mb/s
Width                       : 1 920 pixels
Height                      : 1 080 pixels
Display aspect ratio        : 16:9
Frame rate mode             : Constant
Frame rate                  : 23.976 (24000/1001) FPS
Color space                 : YUV
Chroma subsampling          : 4:2:0
Bit depth                   : 8 bits
Scan type                   : Progressive
Bits/(Pixel*Frame)          : 0.694
Stream size                 : 21.4 GiB (87%)
Language                    : English
Default                     : Yes
Forced                      : No

Audio #1
ID                          : 2
Format                      : AC-3
Format/Info                 : Audio Coding 3
Codec ID                    : A_AC3
Duration                    : 1 h 28 min
Bit rate mode               : Constant
Bit rate                    : 384 kb/s
Channel(s)                  : 6 channels
Channel positions           : Front: L C R, Side: L R, LFE
Sampling rate               : 48.0 kHz
Frame rate                  : 31.250 FPS (1536 SPF)
Bit depth                   : 16 bits
Compression mode            : Lossy
Stream size                 : 244 MiB (1%)
Title                       : iTunes
Language                    : Ukrainian
Service kind                : Complete Main
Default                     : Yes
Forced                      : Yes

Audio #2
ID                          : 3
Format                      : TrueHD
Format profile              : TrueHD+Atmos / TrueHD
Codec ID                    : A_TRUEHD
Duration                    : 1 h 28 min
Bit rate mode               : Variable
Bit rate                    : 4 376 kb/s
Maximum bit rate            : 7 662 kb/s
Channel(s)                  : Object Based / 8 channels
Channel positions           : Object Based / Front: L C R, Side: L R, Back: L R, LFE
Sampling rate               :  / 48.0 kHz
Frame rate                  : 1 200.000 FPS (40 SPF)
Compression mode            : Lossless
Stream size                 : 2.71 GiB (11%)
Title                       : Original
Language                    : English
Default                     : No
Forced                      : No

Audio #3
ID                          : 4
Format                      : AC-3
Format/Info                 : Audio Coding 3
Codec ID                    : A_AC3
Duration                    : 1 h 28 min
Bit rate mode               : Constant
Bit rate                    : 448 kb/s
Channel(s)                  : 6 channels
Channel positions           : Front: L C R, Side: L R, LFE
Sampling rate               : 48.0 kHz
Frame rate                  : 31.250 FPS (1536 SPF)
Bit depth                   : 16 bits
Compression mode            : Lossy
Stream size                 : 284 MiB (1%)
Language                    : English
Service kind                : Complete Main
Default                     : No
Forced                      : No

Text
ID                          : 5
Format                      : UTF-8
Codec ID                    : S_TEXT/UTF8
Codec ID/Info               : UTF-8 Plain Text
Duration                    : 1 h 25 min
Bit rate                    : 62 b/s
Count of elements           : 1554
Stream size                 : 39.5 KiB (0%)
Language                    : English
Default                     : No
Forced                      : No

Menu
00:00:00.000                : en:00:00:00.000
00:06:07.701                : en:00:06:07.701
00:09:12.635                : en:00:09:12.635
00:16:28.112                : en:00:16:28.112
00:20:00.699                : en:00:20:00.699
00:25:48.255                : en:00:25:48.255
00:30:27.659                : en:00:30:27.659
00:34:12.092                : en:00:34:12.092
00:40:13.995                : en:00:40:13.995
00:45:28.142                : en:00:45:28.142
00:50:12.301                : en:00:50:12.301
00:57:18.643                : en:00:57:18.643
01:00:41.137                : en:01:00:41.137
01:04:59.187                : en:01:04:59.187
01:11:13.060                : en:01:11:13.060
01:16:59.823                : en:01:16:59.823
Скріншоти





Джерело: &
Особиста оцінка: 0 - не дивився


Золотий реліз (завантажене не впливає на рейтинг)
 Трекер:    Зареєстрований   

Завантажити / скачати мультфільм українською



відео для новачків



 Зареєстрований:   2018-05-22 10:57
 Розмір:   24.64 GB 
 Оцінка мультфільму:   8.8/10 (Голосів: 17)
   
Інші релізи
   Дикі предки / Early Man (2018) AVC Ukr/Eng | Sub Eng 11FrYkT  3 / 0   2.25 GB   2018-05-22 21:05 
   Дикі предки / Early Man (2018) igor911  16 / 0   1.42 GB   2018-05-22 07:59 
   Дикі предки / Early Man (2018) 1080p Ukr/Eng | Sub Eng staf777  6 / 0   8.56 GB   2018-05-22 06:52 
   Дикі предки / Early Man (2018) 720p Ukr/Eng | Sub Eng 11FrYkT  6 / 0   3.76 GB   2018-05-22 06:01 
Ваш часовий пояс: GMT + 2 Години

Нова тема   Відповісти