Подвійний прорахунок (Подвійне звинувачення) / Double Jeopardy (1999) 1080p 2xUkr/Eng | Sub Eng

Нові коментарі

Нова тема   Відповісти
Автор Повідомлення
Anonymous 







2018-05-21 12:03  
Подвійний прорахунок / Подвійне звинувачення / Double Jeopardy (1999) 1080p 2xUkr/Eng | Sub Eng

Подвійний прорахунок (Подвійне звинувачення) / Double Jeopardy (1999) 1080p 2xUkr/Eng | Sub Eng

Оригінальний постер:





Жанр: трилер, детектив, кримінальний
Країна: США, Німеччина, Канада



Кінокомпанія: Paramount Pictures, MFP Munich Film Partners GmbH & Company I. Produktions KG, Province of British Columbia Production Services Tax Credit
Режисер: Брюс Бересфорд / Bruce Beresford
Актори: Ешлі Джадд / Ashley Judd, Томмі Лі Джонс / Tommy Lee Jones, Брюс Ґрінвуд / Bruce Greenwood, Аннабет Ґіш / Annabeth Gish, Бенджамін Вейр / Benjamin Weir, Джей Бразо / Jay Brazeau, Джон МакЛарен / John Maclaren, Ед Еванко / Ed Evanko, Брюс Кемпбелл / Bruce Campbell, Бреннан Елліотт / Brennan Elliott та інші

Сюжет:
Молодій жінці довелося відбувати термін за злочин, до якого вона не мала жодного стосунку. Більше того, з'ясувалося, що її підставив власний чоловік, який насправді був живий-здоровий і чудово себе почував. Проте він забув узяти до уваги, на що здатна Ліббі, коли її підступно зраджують. Термін закінчився, і вона відправляється відновлювати справедливість. А слідом за Ліббі відправляється офіцер з нагляду за випущеними на волю в'язнями...


Тривалість: 01:45:12
Якість: 1080p
Відео:
кодек:
розмір кадру: 1920 x 800
бітрейт: 7893 кб/с

Аудіо # 1:
мова: українська
переклад: багатоголосий закадровий
кодек: 2.0
бітрейт: 192 кб/с

Аудіо # 2:
мова: українська
переклад: багатоголосий закадровий
кодек: 2.0
бітрейт: 192 кб/с

Аудіо # 3:
мова: англійська
переклад: оригінал
кодек: 5.1
бітрейт: 640 кб/с

Субтитри:
мова: англійська
тип: програмні (м'які)
формат: *.srt
Info

General
Unique ID : 5131951974197364608742765386611147279 (0x3DC60C47A894BB533FAF26E7A69C20F)
Format :
Format version : Version 4 / Version 2
File size : 6.56 GiB
Duration : 1 h 45 min
Overall bit rate mode : Variable
Overall bit rate : 8 923 kb/s
Movie name : Подвійний прорахунок (Подвійне звинувачення) / Double Jeopardy (1999) [Amazon] 1080p [2xUkr.Eng Sub.Eng] [Hurtom]
Encoded date : UTC 2018-05-20 22:26:25
Writing application : v21.0.0 ('Tardigrades Will Inherit The Earth') 64-bit
Writing library : libebml v1.3.5 + v1.4.8
Cover : Yes
Attachments : Cover.jpg / Cover2.jpg

Video
ID : 1
Format : AVC
Format/Info : Advanced Video Codec
Format profile : [email protected]
Format settings : CABAC / 4 Ref Frames
Format settings, CABAC : Yes
Format settings, RefFrames : 4 frames
Codec ID : V_MPEG4/ISO/AVC
Duration : 1 h 45 min
Bit rate mode : Variable
Bit rate : 7 893 kb/s
Maximum bit rate : 15.0 Mb/s
Width : 1 920 pixels
Height : 800 pixels
Display aspect ratio : 2.40:1
Frame rate mode : Constant
Frame rate : 23.976 (24000/1001) FPS
Color space : YUV
Chroma subsampling : 4:2:0
Bit depth : 8 bits
Scan type : Progressive
Bits/(Pixel*Frame) : 0.214
Stream size : 5.80 GiB (88%)
Title : Double Jeopardy (1999) [Amazon] 1080p [2xUkr.Eng Sub.Eng] [Hurtom]
Writing library : core 148 r2623 d5b2374
Encoding settings : cabac=1 / ref=4 / deblock=1:-1:-1 / analyse=0x3:0x133 / me=umh / subme=9 / psy=1 / psy_rd=1.00:0.15 / mixed_ref=1 / me_range=24 / chroma_me=1 / trellis=2 / 8x8dct=1 / cqm=0 / deadzone=21,11 / fast_pskip=1 / chroma_qp_offset=-3 / threads=25 / lookahead_threads=4 / sliced_threads=0 / nr=150 / decimate=1 / interlaced=0 / bluray_compat=0 / constrained_intra=0 / bframes=8 / b_pyramid=2 / b_adapt=2 / b_bias=0 / direct=3 / weightb=1 / open_gop=0 / weightp=2 / keyint=120 / keyint_min=61 / scenecut=0 / intra_refresh=0 / rc_lookahead=120 / rc=crf / mbtree=1 / crf=18.0 / qcomp=0.60 / qpmin=0 / qpmax=69 / qpstep=4 / vbv_maxrate=15000 / vbv_bufsize=31250 / crf_max=0.0 / nal_hrd=vbr / filler=0 / ip_ratio=1.40 / aq=3:1.00
Language : English
Default : Yes
Forced : No
Color range : Limited
Color primaries : BT.709
Transfer characteristics : BT.709
Matrix coefficients : BT.709

Audio #1
ID : 2
Format : AC-3
Format/Info : Audio Coding 3
Codec ID : A_AC3
Duration : 1 h 45 min
Bit rate mode : Constant
Bit rate : 192 kb/s
Channel(s) : 2 channels
Channel positions : Front: L R
Sampling rate : 48.0 kHz
Frame rate : 31.250 FPS (1536 SPF)
Bit depth : 16 bits
Compression mode : Lossy
Stream size : 144 MiB (2%)
Title : MVO | Inter | 2.0 | 192 kbps
Language : Ukrainian
Service kind : Complete Main
Default : Yes
Forced : No

Audio #2
ID : 3
Format : AC-3
Format/Info : Audio Coding 3
Codec ID : A_AC3
Duration : 1 h 45 min
Bit rate mode : Constant
Bit rate : 192 kb/s
Channel(s) : 2 channels
Channel positions : Front: L R
Sampling rate : 48.0 kHz
Frame rate : 31.250 FPS (1536 SPF)
Bit depth : 16 bits
Compression mode : Lossy
Stream size : 144 MiB (2%)
Title : MVO | Novy Kanal | 2.0 | 192 kbps
Language : Ukrainian
Service kind : Complete Main
Default : No
Forced : No

Audio #3
ID : 4
Format : AC-3
Format/Info : Audio Coding 3
Codec ID : A_AC3
Duration : 1 h 45 min
Bit rate mode : Constant
Bit rate : 640 kb/s
Channel(s) : 6 channels
Channel positions : Front: L C R, Side: L R, LFE
Sampling rate : 48.0 kHz
Frame rate : 31.250 FPS (1536 SPF)
Bit depth : 16 bits
Compression mode : Lossy
Stream size : 482 MiB (7%)
Title : Original
Language : English
Service kind : Complete Main
Default : No
Forced : No

Text
ID : 5
Format : UTF-8
Codec ID : S_TEXT/UTF8
Codec ID/Info : UTF-8 Plain Text
Duration : 1 h 38 min
Bit rate : 55 b/s
Count of elements : 1023
Stream size : 40.2 KiB (0%)
Title : Original
Language : English
Default : No
Forced : No

Menu
00:00:00.000 : en:The Good Life
00:06:32.000 : en:The Morning Star
00:13:26.000 : en:Testimony
00:20:50.000 : en:Using Her Head
00:27:36.000 : en:A Christmas Present
00:32:31.000 : en:Conditional Parole
00:40:25.000 : en:School Records
00:46:15.000 : en:"Don't Go Anywhere."
00:52:39.000 : en:Angela Ryder
00:58:46.000 : en:Art Search
01:06:20.000 : en:Bachelor Auction
01:15:23.000 : en:The Red Umbrella
01:21:17.000 : en:Tourist Trap
01:29:09.000 : en:Number 3
01:36:22.000 : en:Matty
01:40:32.000 : en:End Credits
Скріншоти












Джерело: &
Особиста оцінка: 0 - не дивився
Подяки:
- за запис з ТБ п.РОМЕО, п.olgaya, п.dvorsky;
- за опис п.JACKUS, п.omm, п.igor911;
- за синхронізацію під п.omm;
- зведення під DVD п.JACKUS;
- постер п.Ham_R;

R - рейтинг стрічки, встановлений Американською асоціацією кінокомпаній

MPAA, англ. Motion Picture Association of America - Американська асоціація кінокомпаній

Рейтинг R — Restricted
Підлітки до 18 років допускаються на фільм тільки у супроводі одного з батьків, або їхнього законного представника.

Обмеження — до 18 років потрібний супровід одного з батьків або дорослого опікуна (вік може змінюватися в деяких регіонах). Даний рейтинг показує, що оціночна комісія вирішила, що деякий матеріал цього фільму призначається для дорослих. Батьки повинні більше дізнатися про фільм перш, ніж узяти на його перегляд дітей. Рейтинг R також може бути призначений через використовувану у фільмі мову, теми насильства, сексу або зображення вживання наркотиків.


Не забуваємо дякувати!


Срібний реліз (на рейтинг впливає 50% завантаженого)
 Трекер:    Зареєстрований   

Завантажити / скачати фільм українською



відео для новачків



 Зареєстрований:   2018-05-21 12:15
 Розмір:   6.56 GB 
 Оцінка фільму:   9.7/10 (Голосів: 7)
   
Ваш часовий пояс: GMT + 2 Години

Нова тема   Відповісти