Августин Волошин. Метеорит незалежності – над Срібною землею (2014)

Нові коментарі

Нова тема   Відповісти
Автор Повідомлення
Anonymous 







2018-05-20 21:44  
Августин Волошин. Метеорит незалежності – над Срібною землею (2014)

Августин Волошин. Метеорит незалежності – над Срібною землею (2014)


Жанр: документальний, історичний
Країна: Україна

Телеканал / кіностудія: Студія документальних фільмів
Режисер: Світлана Красножон. Автор сценарію - Володимир Качур
Актори: Володимир Качур, Володимр Сергійчук, Олександр Пагіря

Сюжет:
1918 рік. Австро-Угорська імперія зникає з політичної мапи світу. Європа зазнає суттєвих геополітичних трансформацій…

На Закарпатті, Срібній землі, суспільно-політичні процеси також набирають обертів. Створюються народні ради, які готові інтегруватися в новостворену Угорську державу або Чехословаччину. Але у східному регіоні краю народні ради займають чітку проукраїнську позицію – цей край повинен увійти до складу Західноукраїнської народної республіки або Української народної республіки. Боротьба за сфери впливу триває.

У той час на обрії політичної боротьби з великою мрією життя виходить священик, науковець та політичний діяч Августин Волошин. Це тепер його пам’ятник прикрашає набережну старовинного Ужгорода. А понад сто років тому він узявся доводити, що русини Закарпаття та українці з великої України – це ідентичні поняття. Він описує свої досліди у знаменитій "Граматиці", з однодумцями стає на шлях самоідентифікації, яка повинна увійти в маси й спричинити культурний і політичний вибух.


Тривалість: 00:23:51+00:25:43
Якість:
Відео:
кодек:
розмір кадру: 720 х 576
бітрейт: 1000 кб/с

Аудіо:
мова: українська
переклад: оригінал
кодек: 2.0
бітрейт: 129 кб/с

Частина 1
Info
General
Complete name : Августин_Волошин_Метеорит_незалежності-над_Срібною_землею_(2014)_1_[Перший].mp4
Format : MPEG-4
Format profile : Base Media / Version 2
Codec ID : mp42 (isom/iso2/avc1/mp41)
File size : 194 MiB
Duration : 23 min 51 s
Overall bit rate mode : Variable
Overall bit rate : 1 134 kb/s
Encoded date : UTC 2017-05-12 08:10:28
Tagged date : UTC 2017-05-12 08:10:28
Writing application : HandBrake 1.0.4 2017040900

Video
ID : 1
Format : AVC
Format/Info : Advanced Video Codec
Format profile : [email protected]
Format settings : CABAC / 4 Ref Frames
Format settings, CABAC : Yes
Format settings, ReFrames : 4 frames
Codec ID : avc1
Codec ID/Info : Advanced Video Coding
Duration : 23 min 51 s
Bit rate : 1 000 kb/s
Width : 720 pixels
Height : 576 pixels
Display aspect ratio : 4:3
Frame rate mode : Constant
Frame rate : 25.000 FPS
Standard : PAL
Color space : YUV
Chroma subsampling : 4:2:0
Bit depth : 8 bits
Scan type : Progressive
Bits/(Pixel*Frame) : 0.096
Stream size : 171 MiB (88%)
Writing library : core 148 r2643 5c65704
Encoding settings : cabac=1 / ref=2 / deblock=1:0:0 / analyse=0x3:0x113 / me=hex / subme=6 / psy=1 / psy_rd=1.00:0.00 / mixed_ref=1 / me_range=16 / chroma_me=1 / trellis=1 / 8x8dct=1 / cqm=0 / deadzone=21,11 / fast_pskip=1 / chroma_qp_offset=-2 / threads=6 / lookahead_threads=1 / sliced_threads=0 / nr=0 / decimate=1 / interlaced=0 / bluray_compat=0 / constrained_intra=0 / bframes=3 / b_pyramid=2 / b_adapt=1 / b_bias=0 / direct=1 / weightb=1 / open_gop=0 / weightp=1 / keyint=250 / keyint_min=25 / scenecut=40 / intra_refresh=0 / rc_lookahead=30 / rc=2pass / mbtree=1 / bitrate=1000 / ratetol=1.0 / qcomp=0.60 / qpmin=0 / qpmax=69 / qpstep=4 / cplxblur=20.0 / qblur=0.5 / ip_ratio=1.40 / aq=1:1.00
Encoded date : UTC 2017-05-12 08:10:28
Tagged date : UTC 2017-05-12 08:10:28
Color range : Limited
Color primaries : BT.601 PAL
Transfer characteristics : BT.709
Matrix coefficients : BT.601

Audio
ID : 2
Format :
Format/Info : Advanced Audio Codec
Format profile : LC
Codec ID : mp4a-40-2
Duration : 23 min 51 s
Bit rate mode : Variable
Bit rate : 129 kb/s
Channel(s) : 2 channels
Channel positions : Front: L R
Sampling rate : 48.0 kHz
Frame rate : 46.875 FPS (1024 SPF)
Compression mode : Lossy
Stream size : 21.9 MiB (11%)
Title : Stereo / Stereo
Language : English
Default : Yes
Alternate group : 1
Encoded date : UTC 2017-05-12 08:10:28
Tagged date : UTC 2017-05-12 08:10:28
Скріншоти




Частина 2
Info
General
Complete name : Августин_Волошин_Метеорит_незалежності-над_Срібною_землею_(2014)_2_[Перший].mp4
Format : MPEG-4
Format profile : Base Media / Version 2
Codec ID : mp42 (isom/iso2/avc1/mp41)
File size : 209 MiB
Duration : 25 min 43 s
Overall bit rate mode : Variable
Overall bit rate : 1 134 kb/s
Encoded date : UTC 2017-05-10 00:01:11
Tagged date : UTC 2017-05-10 00:01:11
Writing application : HandBrake 1.0.4 2017040900

Video
ID : 1
Format : AVC
Format/Info : Advanced Video Codec
Format profile : [email protected]
Format settings : CABAC / 4 Ref Frames
Format settings, CABAC : Yes
Format settings, ReFrames : 4 frames
Codec ID : avc1
Codec ID/Info : Advanced Video Coding
Duration : 25 min 43 s
Duration_LastFrame : 40 ms
Bit rate : 1 000 kb/s
Width : 720 pixels
Height : 576 pixels
Display aspect ratio : 4:3
Frame rate mode : Constant
Frame rate : 25.000 FPS
Standard : PAL
Color space : YUV
Chroma subsampling : 4:2:0
Bit depth : 8 bits
Scan type : Progressive
Bits/(Pixel*Frame) : 0.096
Stream size : 184 MiB (88%)
Writing library : core 148 r2643 5c65704
Encoding settings : cabac=1 / ref=2 / deblock=1:0:0 / analyse=0x3:0x113 / me=hex / subme=6 / psy=1 / psy_rd=1.00:0.00 / mixed_ref=1 / me_range=16 / chroma_me=1 / trellis=1 / 8x8dct=1 / cqm=0 / deadzone=21,11 / fast_pskip=1 / chroma_qp_offset=-2 / threads=6 / lookahead_threads=1 / sliced_threads=0 / nr=0 / decimate=1 / interlaced=0 / bluray_compat=0 / constrained_intra=0 / bframes=3 / b_pyramid=2 / b_adapt=1 / b_bias=0 / direct=1 / weightb=1 / open_gop=0 / weightp=1 / keyint=250 / keyint_min=25 / scenecut=40 / intra_refresh=0 / rc_lookahead=30 / rc=2pass / mbtree=1 / bitrate=1000 / ratetol=1.0 / qcomp=0.60 / qpmin=0 / qpmax=69 / qpstep=4 / cplxblur=20.0 / qblur=0.5 / ip_ratio=1.40 / aq=1:1.00
Encoded date : UTC 2017-05-10 00:01:11
Tagged date : UTC 2017-05-10 00:01:11
Color range : Limited
Color primaries : BT.601 PAL
Transfer characteristics : BT.709
Matrix coefficients : BT.601

Audio
ID : 2
Format :
Format/Info : Advanced Audio Codec
Format profile : LC
Codec ID : mp4a-40-2
Duration : 25 min 42 s
Bit rate mode : Variable
Bit rate : 129 kb/s
Channel(s) : 2 channels
Channel positions : Front: L R
Sampling rate : 48.0 kHz
Frame rate : 46.875 FPS (1024 SPF)
Compression mode : Lossy
Stream size : 23.6 MiB (11%)
Title : Stereo / Stereo
Language : English
Default : Yes
Alternate group : 1
Encoded date : UTC 2017-05-10 00:01:11
Tagged date : UTC 2017-05-10 00:01:11
Скріншоти




Джерело:


Золотий реліз (завантажене не впливає на рейтинг)
 Трекер:    Зареєстрований   

Завантажити / скачати фільм українською



відео для новачків



 Зареєстрований:   2018-05-20 21:44
 Розмір:   402 MB 
 Оцінка фільму:   10/10 (Голосів: 5)
   
Anonymous 







2018-05-20 21:48  
запис когось з гуртомівців, прошу зголоситися
файли взято з ex.ua
цей фільм також можна глянути на офіційному сайті http://1tv.com.ua/programs/augustyn_voloshyn

Форкуш 
VIP


З нами з: 03.02.10
Востаннє: 24.10.20
Повідомлень: 2862

2018-05-21 08:04  
Президент Карпатської України Авґустин Волошин дав інтерв’ю газеті DAY - https://rozmova.wordpress.com/2014/03/17/intervu-avhusryna-voloshyna/
11FrYkT 
Модератор відео


З нами з: 20.02.11
Востаннє: 24.10.20
Повідомлень: 7004

2018-05-21 15:07  
Anonymous , додайте скріншоти
Anonymous 







2018-05-21 16:12  
11FrYkT написано:
додайте скріншоти

??
додав, чи у Вас не відтворюються?
чи Ви про те, що вони не поокремо?
прочитав правила, там нічого про це не сказано
Цитата:
11. Скріншоти
Дуже важлива частина повідомлення, адже саме за скріншотами оригінального розміру можна визначити чи вірно вказано якість відео. Розмір завжди має відповідати даним із Info. Скріншоти можна заливати на будь який сервіс збереження фото, наприклад: imageshack.us, або share.te.ua. Скріншотів має бути не менше трьох, бажано і статичних, і рухомих кадрів, і вони мають бути створені власноручно, а не взяті з іншого джерела.

але якщо Вам такі не подобаються (хоча за ними цілком можна визначити якість відео), то перероблю

Додано через 49 хвилин 20 секунд:

додав "звичайні" скріншоти

Ваш часовий пояс: GMT + 2 Години

Нова тема   Відповісти