Ірландець / Kill the Irishman (2011) Remux 1080p 2xUkr/Eng | Sub Eng

Нові коментарі

Нова тема   Відповісти
Автор Повідомлення
IronBee 
Поважний учасник


З нами з: 08.02.10
Востаннє: 23.01.20
Повідомлень: 225

2018-05-20 13:48  
Ірландець Kill the Irishman (2011) Remux 1080p 2xUkr/Eng | Sub Eng

Ірландець / Kill the Irishman (2011) Remux 1080p 2xUkr/Eng | Sub Eng


Жанр: кримінальний, трилер, біографічний
Країна: США



Кінокомпанія: Anchor Bay Films, Code Entertainment, Dundee Entertainment
Режисер: Джонатан Хенслиі
Актори: Рей Стівенсон, Вінсент Донофріо, Вел Кілмер, Крістофер Вокен, Тоні Дарров

Сюжет:
Денні Грін — людина, в якій ірландський войовничий дух змішався з гордістю, жорстокістю, амбіціями і принципами, завдяки чому він став головною фігурою мафіозної війни 1970-х років. Війни, що назавжди змінила структуру організованої злочинності в Америці.


Тривалість: 01:46:36
Якість: Remux
Відео:
кодек: VC-1
розмір кадру: 1920 х 1080
бітрейт: 30,3 Mб/с

Аудіо # 1:
мова: українська | CINE+
переклад: багатоголосий закадровий
кодек: 2.0
бітрейт: 192 кб/с

Аудіо # 2:
мова: українська | 1+1
переклад: двоголосий закадровий
кодек: 2.0
бітрейт: 192 кб/с

Аудіо # 3:
мова: англійська
переклад: оригінал
кодек: -HD MA 5.1
бітрейт: 2193 кб/с

Субтитри:
мова: англійська
тип: пререндерні
формат: *.PGS
Info
General
Unique ID : 218246177876480213529687078925383722149 (0xA430AF570CF7F09267F299AD90EB64A5)
Complete name : D:\Films\Ірландець Kill the Irishman (2011) Remux 1080p 2xUkrEng Sub Eng[Hurtom].
Format :
Format version : Version 4 / Version 2
File size : 24.5 GiB
Duration : 1 h 46 min
Overall bit rate : 32.9 Mb/s
Encoded date : UTC 2018-05-20 11:17:19
Writing application : v23.0.0 ('The Bride Said No') 64-bit
Writing library : libebml v1.3.6 + v1.4.9

Video
ID : 1
Format : VC-1
Format profile : [email protected]
Codec ID : V_MS/VFW/FOURCC / WVC1
Codec ID/Hint : Microsoft
Duration : 1 h 46 min
Bit rate : 30.3 Mb/s
Width : 1 920 pixels
Height : 1 080 pixels
Display aspect ratio : 16:9
Frame rate mode : Constant
Frame rate : 23.976 (24000/1001) FPS
Color space : YUV
Chroma subsampling : 4:2:0
Bit depth : 8 bits
Scan type : Progressive
Compression mode : Lossy
Bits/(Pixel*Frame) : 0.609
Stream size : 22.6 GiB (92%)
Default : Yes
Forced : No

Audio #1
ID : 2
Format : AC-3
Format/Info : Audio Coding 3
Codec ID : A_AC3
Duration : 1 h 46 min
Bit rate mode : Constant
Bit rate : 192 kb/s
Channel(s) : 2 channels
Channel positions : Front: L R
Sampling rate : 48.0 kHz
Frame rate : 31.250 FPS (1536 SPF)
Bit depth : 16 bits
Compression mode : Lossy
Stream size : 146 MiB (1%)
Title : 2.0 192 кб/с багатоголосий закадровий CINE
Language : Ukrainian
Service kind : Complete Main
Default : Yes
Forced : No

Audio #2
ID : 3
Format : AC-3
Format/Info : Audio Coding 3
Codec ID : A_AC3
Duration : 1 h 46 min
Bit rate mode : Constant
Bit rate : 192 kb/s
Channel(s) : 2 channels
Channel positions : Front: L R
Sampling rate : 48.0 kHz
Frame rate : 31.250 FPS (1536 SPF)
Bit depth : 16 bits
Compression mode : Lossy
Stream size : 146 MiB (1%)
Title : 2.0 192 кб/с багатоголосий закадровий 1+1
Language : Ukrainian
Service kind : Complete Main
Default : No
Forced : No

Audio #3
ID : 4
Format :
Format/Info : Digital Theater Systems
Format profile : MA / Core
Codec ID : A_DTS
Duration : 1 h 46 min
Bit rate mode : Variable / Constant
Bit rate : 2 193 kb/s / 1 509 kb/s
Channel(s) : 6 channels
Channel positions : Front: L C R, Side: L R, LFE
Sampling rate : 48.0 kHz
Frame rate : 93.750 FPS (512 SPF)
Bit depth : 16 bits
Compression mode : Lossless / Lossy
Delay relative to video : 42 ms
Stream size : 1.63 GiB (7%)
Language : English
Default : No
Forced : No

Text
ID : 5
Format : PGS
Muxing mode : zlib
Codec ID : S_HDMV/PGS
Codec ID/Info : Picture based subtitle format used on BDs/HD-DVDs
Duration : 1 h 39 min
Bit rate : 39.7 kb/s
Count of elements : 2460
Stream size : 28.1 MiB (0%)
Language : English
Default : Yes
Forced : No
Скріншоти



За запис з Cine+ дякую пану Sando7
За доріжку від 1+1 дякую п. Zetonik-z, MAKAPOHHIK

Джерело: &
Особиста оцінка: 10 - без зайвих вагань рекомендую всім!


Золотий реліз (завантажене не впливає на рейтинг)
 Трекер:    Зареєстрований   

Завантажити / скачати фільм українською



відео для новачків



 Зареєстрований:   2018-05-20 13:48
 Розмір:   24.49 GB 
 Оцінка фільму:   9.7/10 (Голосів: 10)
   
Інші релізи
   Ірландець / Kill the Irishman (2011) AVC 2xUkr/Eng | Sub Eng staf777  12 / 0   2.53 GB   2019-04-12 18:23 
   Ірландець / Kill the Irishman (2011) 1080p 2xUkr/Eng | Sub Eng staf777  14 / 0   10.64 GB   2018-05-12 13:08 
   Ірландець / Kill the Irishman (2011) 2xUkr/Eng Arsenfpu  12 / 0   2.05 GB   2017-10-01 22:23 
   Ірландець / Kill the Irishman (2011) 720р-mini Ukr/Eng AngryBirdsUA  0 / 0   2.15 GB   2012-03-30 11:48 
   Ірландець / Kill the Irishman (2011) 720р Ukr/Eng | Sub Eng pyatachok  3 / 0   6.62 GB   2012-03-10 23:11 
Ваш часовий пояс: GMT + 2 Години

Нова тема   Відповісти